  0
SECTION
  2
HEADER
  9
$ACADVER
  1
AC1015
  9
$ACADMAINTVER
 70
     6
  9
$DWGCODEPAGE
  3
ANSI_1252
  9
$INSBASE
 10
0.0
 20
0.0
 30
0.0
  9
$EXTMIN
 10
0.0
 20
0.0
 30
0.0
  9
$EXTMAX
 10
297.0000000000001
 20
210.0000000000001
 30
0.0
  9
$LIMMIN
 10
0.0
 20
0.0
  9
$LIMMAX
 10
12.0
 20
9.0
  9
$ORTHOMODE
 70
     0
  9
$REGENMODE
 70
     1
  9
$FILLMODE
 70
     1
  9
$QTEXTMODE
 70
     0
  9
$MIRRTEXT
 70
     1
  9
$LTSCALE
 40
1.0
  9
$ATTMODE
 70
     1
  9
$TEXTSIZE
 40
0.2
  9
$TRACEWID
 40
0.05
  9
$TEXTSTYLE
  7
Standard
  9
$CLAYER
  8
0
  9
$CELTYPE
  6
ByLayer
  9
$CECOLOR
 62
   256
  9
$CELTSCALE
 40
1.0
  9
$DISPSILH
 70
     0
  9
$DIMSCALE
 40
1.0
  9
$DIMASZ
 40
0.18
  9
$DIMEXO
 40
0.0625
  9
$DIMDLI
 40
0.38
  9
$DIMRND
 40
0.0
  9
$DIMDLE
 40
0.0
  9
$DIMEXE
 40
0.18
  9
$DIMTP
 40
0.0
  9
$DIMTM
 40
0.0
  9
$DIMTXT
 40
0.18
  9
$DIMCEN
 40
0.09
  9
$DIMTSZ
 40
0.0
  9
$DIMTOL
 70
     0
  9
$DIMLIM
 70
     0
  9
$DIMTIH
 70
     1
  9
$DIMTOH
 70
     1
  9
$DIMSE1
 70
     0
  9
$DIMSE2
 70
     0
  9
$DIMTAD
 70
     0
  9
$DIMZIN
 70
     0
  9
$DIMBLK
  1

  9
$DIMASO
 70
     1
  9
$DIMSHO
 70
     1
  9
$DIMPOST
  1

  9
$DIMAPOST
  1

  9
$DIMALT
 70
     0
  9
$DIMALTD
 70
     2
  9
$DIMALTF
 40
25.4
  9
$DIMLFAC
 40
1.0
  9
$DIMTOFL
 70
     0
  9
$DIMTVP
 40
0.0
  9
$DIMTIX
 70
     0
  9
$DIMSOXD
 70
     0
  9
$DIMSAH
 70
     0
  9
$DIMBLK1
  1

  9
$DIMBLK2
  1

  9
$DIMSTYLE
  2
Standard
  9
$DIMCLRD
 70
     0
  9
$DIMCLRE
 70
     0
  9
$DIMCLRT
 70
     0
  9
$DIMTFAC
 40
1.0
  9
$DIMGAP
 40
0.09
  9
$DIMJUST
 70
     0
  9
$DIMSD1
 70
     0
  9
$DIMSD2
 70
     0
  9
$DIMTOLJ
 70
     1
  9
$DIMTZIN
 70
     0
  9
$DIMALTZ
 70
     0
  9
$DIMALTTZ
 70
     0
  9
$DIMUPT
 70
     0
  9
$DIMDEC
 70
     4
  9
$DIMTDEC
 70
     4
  9
$DIMALTU
 70
     2
  9
$DIMALTTD
 70
     2
  9
$DIMTXSTY
  7
Standard
  9
$DIMAUNIT
 70
     0
  9
$DIMADEC
 70
     0
  9
$DIMALTRND
 40
0.0
  9
$DIMAZIN
 70
     0
  9
$DIMDSEP
 70
    46
  9
$DIMATFIT
 70
     3
  9
$DIMFRAC
 70
     0
  9
$DIMLDRBLK
  1

  9
$DIMLUNIT
 70
     2
  9
$DIMLWD
 70
    -2
  9
$DIMLWE
 70
    -2
  9
$DIMTMOVE
 70
     0
  9
$LUNITS
 70
     2
  9
$LUPREC
 70
     4
  9
$SKETCHINC
 40
0.1
  9
$FILLETRAD
 40
0.5
  9
$AUNITS
 70
     0
  9
$AUPREC
 70
     0
  9
$MENU
  1
.
  9
$ELEVATION
 40
0.0
  9
$PELEVATION
 40
0.0
  9
$THICKNESS
 40
0.0
  9
$LIMCHECK
 70
     0
  9
$CHAMFERA
 40
0.5
  9
$CHAMFERB
 40
0.5
  9
$CHAMFERC
 40
1.0
  9
$CHAMFERD
 40
0.0
  9
$SKPOLY
 70
     0
  9
$TDCREATE
 40
2456997.594669491
  9
$TDUCREATE
 40
2456997.553002824
  9
$TDUPDATE
 40
2456997.594669676
  9
$TDUUPDATE
 40
2456997.553003009
  9
$TDINDWG
 40
0.0000000116
  9
$TDUSRTIMER
 40
0.0000000116
  9
$USRTIMER
 70
     1
  9
$ANGBASE
 50
0.0
  9
$ANGDIR
 70
     0
  9
$PDMODE
 70
     0
  9
$PDSIZE
 40
0.0
  9
$PLINEWID
 40
0.0
  9
$SPLFRAME
 70
     0
  9
$SPLINETYPE
 70
     6
  9
$SPLINESEGS
 70
     8
  9
$HANDSEED
  5
2EC
  9
$SURFTAB1
 70
     6
  9
$SURFTAB2
 70
     6
  9
$SURFTYPE
 70
     6
  9
$SURFU
 70
     6
  9
$SURFV
 70
     6
  9
$UCSBASE
  2

  9
$UCSNAME
  2

  9
$UCSORG
 10
0.0
 20
0.0
 30
0.0
  9
$UCSXDIR
 10
1.0
 20
0.0
 30
0.0
  9
$UCSYDIR
 10
0.0
 20
1.0
 30
0.0
  9
$UCSORTHOREF
  2

  9
$UCSORTHOVIEW
 70
     0
  9
$UCSORGTOP
 10
0.0
 20
0.0
 30
0.0
  9
$UCSORGBOTTOM
 10
0.0
 20
0.0
 30
0.0
  9
$UCSORGLEFT
 10
0.0
 20
0.0
 30
0.0
  9
$UCSORGRIGHT
 10
0.0
 20
0.0
 30
0.0
  9
$UCSORGFRONT
 10
0.0
 20
0.0
 30
0.0
  9
$UCSORGBACK
 10
0.0
 20
0.0
 30
0.0
  9
$PUCSBASE
  2

  9
$PUCSNAME
  2

  9
$PUCSORG
 10
0.0
 20
0.0
 30
0.0
  9
$PUCSXDIR
 10
1.0
 20
0.0
 30
0.0
  9
$PUCSYDIR
 10
0.0
 20
1.0
 30
0.0
  9
$PUCSORTHOREF
  2

  9
$PUCSORTHOVIEW
 70
     0
  9
$PUCSORGTOP
 10
0.0
 20
0.0
 30
0.0
  9
$PUCSORGBOTTOM
 10
0.0
 20
0.0
 30
0.0
  9
$PUCSORGLEFT
 10
0.0
 20
0.0
 30
0.0
  9
$PUCSORGRIGHT
 10
0.0
 20
0.0
 30
0.0
  9
$PUCSORGFRONT
 10
0.0
 20
0.0
 30
0.0
  9
$PUCSORGBACK
 10
0.0
 20
0.0
 30
0.0
  9
$USERI1
 70
     0
  9
$USERI2
 70
     0
  9
$USERI3
 70
     0
  9
$USERI4
 70
     0
  9
$USERI5
 70
     0
  9
$USERR1
 40
18.1
  9
$USERR2
 40
0.0
  9
$USERR3
 40
0.0
  9
$USERR4
 40
0.0
  9
$USERR5
 40
0.0
  9
$WORLDVIEW
 70
     1
  9
$SHADEDGE
 70
     3
  9
$SHADEDIF
 70
    70
  9
$TILEMODE
 70
     1
  9
$MAXACTVP
 70
    64
  9
$PINSBASE
 10
0.0
 20
0.0
 30
0.0
  9
$PLIMCHECK
 70
     0
  9
$PEXTMIN
 10
1.00000000000000E+20
 20
1.00000000000000E+20
 30
1.00000000000000E+20
  9
$PEXTMAX
 10
-1.00000000000000E+20
 20
-1.00000000000000E+20
 30
-1.00000000000000E+20
  9
$PLIMMIN
 10
0.0
 20
0.0
  9
$PLIMMAX
 10
12.0
 20
9.0
  9
$UNITMODE
 70
     0
  9
$VISRETAIN
 70
     1
  9
$PLINEGEN
 70
     0
  9
$PSLTSCALE
 70
     1
  9
$TREEDEPTH
 70
  3020
  9
$CMLSTYLE
  2
Standard
  9
$CMLJUST
 70
     0
  9
$CMLSCALE
 40
1.0
  9
$PROXYGRAPHICS
 70
     1
  9
$MEASUREMENT
 70
     1
  9
$CELWEIGHT
370
    -1
  9
$ENDCAPS
280
     0
  9
$JOINSTYLE
280
     0
  9
$LWDISPLAY
290
     0
  9
$INSUNITS
 70
     4
  9
$HYPERLINKBASE
  1

  9
$STYLESHEET
  1

  9
$XEDIT
290
     1
  9
$CEPSNTYPE
380
     0
  9
$PSTYLEMODE
290
     1
  9
$FINGERPRINTGUID
  2
{86E8952E-2C03-4F8C-B111-C97BDA04BC55}
  9
$VERSIONGUID
  2
{FAEB1C32-E019-11D5-929B-00C0DF256EC4}
  9
$EXTNAMES
290
     1
  9
$PSVPSCALE
 40
0.0
  9
$OLESTARTUP
290
     0
  0
ENDSEC
  0
SECTION
  2
CLASSES
  0
CLASS
  1
ACDBDICTIONARYWDFLT
  2
AcDbDictionaryWithDefault
  3
ObjectDBX Classes
 90
        0
280
     0
281
     0
  0
CLASS
  1
VISUALSTYLE
  2
AcDbVisualStyle
  3
ObjectDBX Classes
 90
     4095
280
     0
281
     0
  0
CLASS
  1
MATERIAL
  2
AcDbMaterial
  3
ObjectDBX Classes
 90
     1153
280
     0
281
     0
  0
CLASS
  1
DICTIONARYVAR
  2
AcDbDictionaryVar
  3
ObjectDBX Classes
 90
        0
280
     0
281
     0
  0
CLASS
  1
ACDBPLACEHOLDER
  2
AcDbPlaceHolder
  3
ObjectDBX Classes
 90
        0
280
     0
281
     0
  0
CLASS
  1
LAYOUT
  2
AcDbLayout
  3
ObjectDBX Classes
 90
        0
280
     0
281
     0
  0
ENDSEC
  0
SECTION
  2
TABLES
  0
TABLE
  2
VPORT
  5
8
330
0
100
AcDbSymbolTable
 70
     1
  0
VPORT
  5
29
330
8
100
AcDbSymbolTableRecord
100
AcDbViewportTableRecord
  2
*Active
 70
     0
 10
0.0
 20
0.0
 11
1.0
 21
1.0
 12
148.5000000000001
 22
105.0000000000001
 13
0.0
 23
0.0
 14
0.5
 24
0.5
 15
0.5
 25
0.5
 16
0.0
 26
0.0
 36
1.0
 17
0.0
 27
0.0
 37
0.0
 40
231.0000000000001
 41
1.60267857142857
 42
50.0
 43
0.0
 44
0.0
 50
0.0
 51
0.0
 71
     0
 72
   100
 73
     1
 74
     3
 75
     0
 76
     0
 77
     0
 78
     0
281
     0
 65
     1
110
0.0
120
0.0
130
0.0
111
1.0
121
0.0
131
0.0
112
0.0
122
1.0
132
0.0
 79
     0
146
0.0
  0
ENDTAB
  0
TABLE
  2
LTYPE
  5
5
330
0
100
AcDbSymbolTable
 70
     8
  0
LTYPE
  5
14
330
5
100
AcDbSymbolTableRecord
100
AcDbLinetypeTableRecord
  2
ByBlock
 70
     0
  3

 72
    65
 73
     0
 40
0.0
  0
LTYPE
  5
15
330
5
100
AcDbSymbolTableRecord
100
AcDbLinetypeTableRecord
  2
ByLayer
 70
     0
  3

 72
    65
 73
     0
 40
0.0
  0
LTYPE
  5
16
330
5
100
AcDbSymbolTableRecord
100
AcDbLinetypeTableRecord
  2
Continuous
 70
     0
  3
Solid line
 72
    65
 73
     0
 40
0.0
  0
LTYPE
  5
3F
330
5
100
AcDbSymbolTableRecord
100
AcDbLinetypeTableRecord
  2
DASHED
 70
     0
  3
Dashed
 72
    65
 73
     2
 40
15.0
 49
7.0
 74
     0
 49
-8.0
 74
     0
  0
LTYPE
  5
40
330
5
100
AcDbSymbolTableRecord
100
AcDbLinetypeTableRecord
  2
DOTTED
 70
     0
  3
Dotted
 72
    65
 73
     2
 40
1.0
 49
0.0
 74
     0
 49
-1.0
 74
     0
  0
LTYPE
  5
41
330
5
100
AcDbSymbolTableRecord
100
AcDbLinetypeTableRecord
  2
DOT_CENTER
 70
     0
  3
Dot_Center
 72
    65
 73
     4
 40
14.0
 49
12.0
 74
     0
 49
-1.0
 74
     0
 49
0.0
 74
     0
 49
-1.0
 74
     0
  0
LTYPE
  5
42
330
5
100
AcDbSymbolTableRecord
100
AcDbLinetypeTableRecord
  2
LONG_DASHED
 70
     0
  3
Long_Dashed
 72
    65
 73
     2
 40
15.0
 49
10.0
 74
     0
 49
-5.0
 74
     0
  0
LTYPE
  5
43
330
5
100
AcDbSymbolTableRecord
100
AcDbLinetypeTableRecord
  2
DASH_CENTER
 70
     0
  3
Dash_Center
 72
    65
 73
     4
 40
14.0
 49
11.0
 74
     0
 49
-1.0
 74
     0
 49
1.0
 74
     0
 49
-1.0
 74
     0
  0
LTYPE
  5
44
330
5
100
AcDbSymbolTableRecord
100
AcDbLinetypeTableRecord
  2
PHANTOM
 70
     0
  3
Phantom
 72
    65
 73
     6
 40
13.0
 49
10.0
 74
     0
 49
-1.0
 74
     0
 49
0.0
 74
     0
 49
-1.0
 74
     0
 49
0.0
 74
     0
 49
-1.0
 74
     0
  0
LTYPE
  5
45
330
5
100
AcDbSymbolTableRecord
100
AcDbLinetypeTableRecord
  2
CENTER_DASH_DASH
 70
     0
  3
Center_Dash_Dash
 72
    65
 73
     6
 40
14.0
 49
9.0
 74
     0
 49
-1.0
 74
     0
 49
1.0
 74
     0
 49
-1.0
 74
     0
 49
1.0
 74
     0
 49
-1.0
 74
     0
  0
ENDTAB
  0
TABLE
  2
LAYER
  5
2
330
0
100
AcDbSymbolTable
 70
     4
  0
LAYER
  5
10
330
2
100
AcDbSymbolTableRecord
100
AcDbLayerTableRecord
  2
0
 70
     0
 62
     7
  6
Continuous
370
    -3
390
F
  0
LAYER
  5
46
330
2
100
AcDbSymbolTableRecord
100
AcDbLayerTableRecord
  2
1
 70
     0
 62
     7
  6
Continuous
370
    -3
390
F
  0
LAYER
  5
47
330
2
100
AcDbSymbolTableRecord
100
AcDbLayerTableRecord
  2
Bemaßungen_TC_020513_DIN_
 70
     0
 62
     7
  6
Continuous
370
    -3
390
F
  0
LAYER
  5
48
330
2
100
AcDbSymbolTableRecord
100
AcDbLayerTableRecord
  2
Sichtbare_Kanten_TC_020513_DIN_
 70
     0
 62
     7
  6
Continuous
370
    -3
390
F
  0
ENDTAB
  0
TABLE
  2
STYLE
  5
3
330
0
100
AcDbSymbolTable
 70
     4
  0
STYLE
  5
11
330
3
100
AcDbSymbolTableRecord
100
AcDbTextStyleTableRecord
  2
Standard
 70
     0
 40
0.0
 41
1.0
 50
0.0
 71
     0
 42
0.2
  3
txt
  4

  0
STYLE
  5
9D
330
3
100
AcDbSymbolTableRecord
100
AcDbTextStyleTableRecord
  2
CONVERTER_11
 70
     0
 40
0.0
 41
1.2
 50
0.0
 71
     0
 42
0.2
  3
ARIAL.TTF
  4

  0
STYLE
  5
A2
330
3
100
AcDbSymbolTableRecord
100
AcDbTextStyleTableRecord
  2
CONVERTER_12
 70
     0
 40
0.0
 41
1.38
 50
0.0
 71
     0
 42
0.2
  3
ARIAL.TTF
  4

  0
STYLE
  5
284
330
3
100
AcDbSymbolTableRecord
100
AcDbTextStyleTableRecord
  2
CONVERTER_13
 70
     0
 40
0.0
 41
0.75
 50
0.0
 71
     0
 42
0.2
  3
txt.shx
  4

  0
ENDTAB
  0
TABLE
  2
VIEW
  5
6
330
0
100
AcDbSymbolTable
 70
     0
  0
ENDTAB
  0
TABLE
  2
UCS
  5
7
330
0
100
AcDbSymbolTable
 70
     0
  0
ENDTAB
  0
TABLE
  2
APPID
  5
9
330
0
100
AcDbSymbolTable
 70
     1
  0
APPID
  5
12
330
9
100
AcDbSymbolTableRecord
100
AcDbRegAppTableRecord
  2
ACAD
 70
     0
  0
ENDTAB
  0
TABLE
  2
DIMSTYLE
  5
A
330
0
100
AcDbSymbolTable
 70
     7
100
AcDbDimStyleTable
  0
DIMSTYLE
105
27
330
A
100
AcDbSymbolTableRecord
100
AcDbDimStyleTableRecord
  2
Standard
 70
     0
178
     0
340
11
  0
DIMSTYLE
105
288
102
{ACAD_REACTORS
330
289
102
}
330
A
100
AcDbSymbolTableRecord
100
AcDbDimStyleTableRecord
  2
ME10_DIM_10
 70
     0
 41
2.5
 42
1.0
 44
2.0
 73
     0
 74
     0
 77
     1
 78
    12
140
3.5
147
0.8
172
     1
173
     1
174
     1
175
     1
176
     7
177
     7
271
     2
178
     7
271
     2
340
284
  0
DIMSTYLE
105
293
102
{ACAD_REACTORS
330
294
102
}
330
A
100
AcDbSymbolTableRecord
100
AcDbDimStyleTableRecord
  2
ME10_DIM_11
 70
     0
 41
2.5
 42
1.0
 44
2.0
 73
     0
 74
     0
 77
     1
 78
    12
140
3.5
147
0.8
172
     1
173
     1
174
     1
175
     1
176
     7
177
     7
271
     2
178
     7
271
     2
340
284
  0
DIMSTYLE
105
29E
102
{ACAD_REACTORS
330
29F
102
}
330
A
100
AcDbSymbolTableRecord
100
AcDbDimStyleTableRecord
  2
ME10_DIM_12
 70
     0
 41
2.5
 42
1.0
 44
2.0
 73
     0
 74
     0
 77
     1
 78
    12
140
3.5
147
0.8
172
     1
173
     1
174
     1
175
     1
176
     7
177
     7
271
     2
178
     7
271
     2
340
284
  0
DIMSTYLE
105
2A9
102
{ACAD_REACTORS
330
2AA
102
}
330
A
100
AcDbSymbolTableRecord
100
AcDbDimStyleTableRecord
  2
ME10_DIM_13
 70
     0
 41
2.5
 42
1.0
 44
2.0
 73
     0
 74
     0
 77
     1
 78
    12
140
3.5
147
0.8
172
     1
173
     1
174
     1
175
     1
176
     7
177
     7
271
     2
178
     7
271
     2
340
284
  0
DIMSTYLE
105
2B4
102
{ACAD_REACTORS
330
2B5
102
}
330
A
100
AcDbSymbolTableRecord
100
AcDbDimStyleTableRecord
  2
ME10_DIM_14
 70
     0
 41
2.5
 42
1.0
 44
2.0
 73
     0
 74
     0
 77
     1
 78
    12
140
3.5
147
0.8
172
     1
173
     1
174
     1
175
     1
176
     7
177
     7
271
     2
178
     7
271
     2
340
284
  0
DIMSTYLE
105
2BF
102
{ACAD_REACTORS
330
2C0
102
}
330
A
100
AcDbSymbolTableRecord
100
AcDbDimStyleTableRecord
  2
ME10_DIM_15
 70
     0
 41
2.5
 42
1.0
 44
2.0
 73
     0
 74
     0
 77
     1
 78
    12
140
3.5
147
0.8
172
     1
173
     1
174
     1
175
     1
176
     7
177
     7
271
     2
178
     7
271
     2
340
284
  0
ENDTAB
  0
TABLE
  2
BLOCK_RECORD
  5
1
330
0
100
AcDbSymbolTable
 70
     9
  0
BLOCK_RECORD
  5
1F
330
1
100
AcDbSymbolTableRecord
100
AcDbBlockTableRecord
  2
*Model_Space
340
22
  0
BLOCK_RECORD
  5
1B
330
1
100
AcDbSymbolTableRecord
100
AcDbBlockTableRecord
  2
*Paper_Space
340
1E
  0
BLOCK_RECORD
  5
23
330
1
100
AcDbSymbolTableRecord
100
AcDbBlockTableRecord
  2
*Paper_Space0
340
26
  0
BLOCK_RECORD
  5
49
330
1
100
AcDbSymbolTableRecord
100
AcDbBlockTableRecord
  2
_formato_A4
340
0
102
{BLKREFS
331
4D
102
}
  0
BLOCK_RECORD
  5
4C
330
1
100
AcDbSymbolTableRecord
100
AcDbBlockTableRecord
  2
A4_oriz
340
0
102
{BLKREFS
331
50
102
}
  0
BLOCK_RECORD
  5
27E
330
1
100
AcDbSymbolTableRecord
100
AcDbBlockTableRecord
  2
*D3
340
0
  0
BLOCK_RECORD
  5
28A
330
1
100
AcDbSymbolTableRecord
100
AcDbBlockTableRecord
  2
*D4
340
0
  0
BLOCK_RECORD
  5
295
330
1
100
AcDbSymbolTableRecord
100
AcDbBlockTableRecord
  2
*D5
340
0
  0
BLOCK_RECORD
  5
2A0
330
1
100
AcDbSymbolTableRecord
100
AcDbBlockTableRecord
  2
*D6
340
0
  0
BLOCK_RECORD
  5
2AB
330
1
100
AcDbSymbolTableRecord
100
AcDbBlockTableRecord
  2
*D7
340
0
  0
BLOCK_RECORD
  5
2B6
330
1
100
AcDbSymbolTableRecord
100
AcDbBlockTableRecord
  2
*D8
340
0
  0
ENDTAB
  0
ENDSEC
  0
SECTION
  2
BLOCKS
  0
BLOCK
  5
20
330
1F
100
AcDbEntity
  8
0
100
AcDbBlockBegin
  2
*Model_Space
 70
     0
 10
0.0
 20
0.0
 30
0.0
  3
*Model_Space
  1

  0
ENDBLK
  5
21
330
1F
100
AcDbEntity
  8
0
100
AcDbBlockEnd
  0
BLOCK
  5
1C
330
1B
100
AcDbEntity
 67
     1
  8
0
100
AcDbBlockBegin
  2
*Paper_Space
 70
     0
 10
0.0
 20
0.0
 30
0.0
  3
*Paper_Space
  1

  0
ENDBLK
  5
1D
330
1B
100
AcDbEntity
 67
     1
  8
0
100
AcDbBlockEnd
  0
BLOCK
  5
24
330
23
100
AcDbEntity
  8
0
100
AcDbBlockBegin
  2
*Paper_Space0
 70
     0
 10
0.0
 20
0.0
 30
0.0
  3
*Paper_Space0
  1

  0
ENDBLK
  5
25
330
23
100
AcDbEntity
  8
0
100
AcDbBlockEnd
  0
BLOCK
  5
4A
330
49
100
AcDbEntity
  8
0
100
AcDbBlockBegin
  2
_formato_A4
 70
     0
 10
297.0000000000001
 20
0.0
 30
0.0
  3
_formato_A4
  1

  0
LINE
  5
51
330
49
100
AcDbEntity
  8
1
  6
Continuous
 62
     7
100
AcDbLine
 10
108.0000000000001
 20
9.99999999999986
 30
0.0
 11
138.0000000000001
 21
9.99999999999986
 31
0.0
  0
LINE
  5
52
330
49
100
AcDbEntity
  8
1
  6
Continuous
 62
     7
100
AcDbLine
 10
108.0000000000001
 20
14.99999999999989
 30
0.0
 11
138.0000000000001
 21
14.99999999999989
 31
0.0
  0
LINE
  5
53
330
49
100
AcDbEntity
  8
1
  6
Continuous
 62
     7
100
AcDbLine
 10
248.0000000000001
 20
20.0
 30
0.0
 11
248.0000000000001
 21
5.0
 31
0.0
  0
LINE
  5
54
330
49
100
AcDbEntity
  8
1
  6
Continuous
 62
     7
100
AcDbLine
 10
265.3526013774855
 20
20.0
 30
0.0
 11
265.3526013774855
 21
5.0
 31
0.0
  0
LINE
  5
55
330
49
100
AcDbEntity
  8
1
  6
Continuous
 62
     7
100
AcDbLine
 10
138.0000000000001
 20
20.0
 30
0.0
 11
138.0000000000001
 21
5.0
 31
0.0
  0
LINE
  5
56
330
49
100
AcDbEntity
  8
1
  6
Continuous
 62
     7
100
AcDbLine
 10
148.4999999999998
 20
210.0000000000001
 30
0.0
 11
148.4999999999998
 21
195.0000000000001
 31
0.0
  0
LINE
  5
57
330
49
100
AcDbEntity
  8
1
  6
Continuous
 62
     7
100
AcDbLine
 10
0.0
 20
0.0
 30
0.0
 11
297.0000000000001
 21
0.0
 31
0.0
  0
LINE
  5
58
330
49
100
AcDbEntity
  8
1
  6
Continuous
 62
     7
100
AcDbLine
 10
0.0
 20
210.0000000000001
 30
0.0
 11
0.0
 21
0.0
 31
0.0
  0
LINE
  5
59
330
49
100
AcDbEntity
  8
1
  6
Continuous
 62
     7
100
AcDbLine
 10
297.0000000000001
 20
210.0000000000001
 30
0.0
 11
0.0
 21
210.0000000000001
 31
0.0
  0
LINE
  5
5A
330
49
100
AcDbEntity
  8
1
  6
Continuous
 62
     7
100
AcDbLine
 10
297.0000000000001
 20
0.0
 30
0.0
 11
297.0000000000001
 21
210.0000000000001
 31
0.0
  0
LINE
  5
5B
330
49
100
AcDbEntity
  8
1
  6
Continuous
 62
     7
100
AcDbLine
 10
4.99999999999989
 20
5.0
 30
0.0
 11
292.0000000000001
 21
5.0
 31
0.0
  0
LINE
  5
5C
330
49
100
AcDbEntity
  8
1
  6
Continuous
 62
     7
100
AcDbLine
 10
292.0000000000001
 20
5.0
 30
0.0
 11
292.0000000000001
 21
189.0
 31
0.0
  0
LINE
  5
5D
330
49
100
AcDbEntity
  8
1
  6
Continuous
 62
     7
100
AcDbLine
 10
292.0000000000001
 20
189.0
 30
0.0
 11
4.99999999999989
 21
189.0
 31
0.0
  0
LINE
  5
5E
102
{ACAD_REACTORS
330
AB
102
}
330
49
100
AcDbEntity
  8
1
  6
Continuous
 62
     7
100
AcDbLine
 10
281.0096340220762
 20
10.07749983983263
 30
0.0
 11
281.0096340220762
 21
14.92250016016737
 31
0.0
  0
LINE
  5
5F
102
{ACAD_REACTORS
330
A8
102
}
330
49
100
AcDbEntity
  8
1
  6
Continuous
 62
     7
100
AcDbLine
 10
279.6763006887428
 20
12.5
 30
0.0
 11
279.6763006887428
 21
14.23205080756884
 31
0.0
  0
LINE
  5
60
102
{ACAD_REACTORS
330
A8
102
}
330
49
100
AcDbEntity
  8
1
  6
Continuous
 62
     7
100
AcDbLine
 10
279.6763006887428
 20
14.23205080756884
 30
0.0
 11
278.8206382560402
 21
12.75
 31
0.0
  0
LINE
  5
61
102
{ACAD_REACTORS
330
A8
102
}
330
49
100
AcDbEntity
  8
1
  6
Continuous
 62
     7
100
AcDbLine
 10
278.5319631214453
 20
12.75
 30
0.0
 11
277.6763006887428
 21
14.23205080756884
 31
0.0
  0
LINE
  5
62
102
{ACAD_REACTORS
330
A8
102
}
330
49
100
AcDbEntity
  8
1
  6
Continuous
 62
     7
100
AcDbLine
 10
277.6763006887428
 20
14.23205080756884
 30
0.0
 11
277.6763006887428
 21
12.5
 31
0.0
  0
LINE
  5
63
330
49
100
AcDbEntity
  8
1
  6
Continuous
 62
     7
100
AcDbLine
 10
270.2598654136012
 20
12.64436426434133
 30
0.0
 11
278.6763006887428
 21
17.5
 31
0.0
  0
LINE
  5
64
330
49
100
AcDbEntity
  8
1
  6
Continuous
 62
     7
100
AcDbLine
 10
278.6763006887428
 20
17.5
 30
0.0
 11
287.0927359638843
 21
12.64436426434133
 31
0.0
  0
LINE
  5
65
330
49
100
AcDbEntity
  8
1
  6
Continuous
 62
     7
100
AcDbLine
 10
287.0927359638843
 20
12.35563573565855
 30
0.0
 11
278.6763006887428
 21
7.5
 31
0.0
  0
LINE
  5
66
330
49
100
AcDbEntity
  8
1
  6
Continuous
 62
     7
100
AcDbLine
 10
278.6763006887428
 20
7.5
 30
0.0
 11
270.2598654136012
 21
12.35563573565855
 31
0.0
  0
LINE
  5
67
102
{ACAD_REACTORS
330
A8
102
}
330
49
100
AcDbEntity
  8
1
  6
Continuous
 62
     7
100
AcDbLine
 10
277.0096340220761
 20
12.5
 30
0.0
 11
277.0096340220761
 21
15.73121731203457
 31
0.0
  0
LINE
  5
68
102
{ACAD_REACTORS
330
A8
102
}
330
49
100
AcDbEntity
  8
1
  6
Continuous
 62
     7
100
AcDbLine
 10
277.5040677056995
 20
15.86370041827229
 30
0.0
 11
278.6763006887428
 21
13.83333333333326
 31
0.0
  0
LINE
  5
69
102
{ACAD_REACTORS
330
A8
102
}
330
49
100
AcDbEntity
  8
1
  6
Continuous
 62
     7
100
AcDbLine
 10
277.0096340220761
 20
12.5
 30
0.0
 11
277.0096340220761
 21
10.84758507263291
 31
0.0
  0
LINE
  5
6A
102
{ACAD_REACTORS
330
A8
102
}
330
49
100
AcDbEntity
  8
1
  6
Continuous
 62
     7
100
AcDbLine
 10
277.6763006887428
 20
10.84758507263291
 30
0.0
 11
277.6763006887428
 21
12.5
 31
0.0
  0
LINE
  5
6B
102
{ACAD_REACTORS
330
A8
102
}
330
49
100
AcDbEntity
  8
1
  6
Continuous
 62
     7
100
AcDbLine
 10
279.6763006887428
 20
12.5
 30
0.0
 11
279.6763006887428
 21
9.3082690706018
 31
0.0
  0
LINE
  5
6C
102
{ACAD_REACTORS
330
A8
102
}
330
49
100
AcDbEntity
  8
1
  6
Continuous
 62
     7
100
AcDbLine
 10
280.3429673554094
 20
9.3082690706018
 30
0.0
 11
280.3429673554094
 21
15.73121731203457
 31
0.0
  0
LINE
  5
6D
102
{ACAD_REACTORS
330
A8
102
}
330
49
100
AcDbEntity
  8
1
  6
Continuous
 62
     7
100
AcDbLine
 10
279.8485336717861
 20
15.86370041827229
 30
0.0
 11
278.6763006887428
 21
13.83333333333326
 31
0.0
  0
LINE
  5
6E
102
{ACAD_REACTORS
330
A9
102
}
330
49
100
AcDbEntity
  8
1
  6
Continuous
 62
     7
100
AcDbLine
 10
275.6763006887428
 20
10.27002114803258
 30
0.0
 11
275.6763006887428
 21
14.92250016016737
 31
0.0
  0
LINE
  5
6F
102
{ACAD_REACTORS
330
A9
102
}
330
49
100
AcDbEntity
  8
1
  6
Continuous
 62
     7
100
AcDbLine
 10
276.3429673554094
 20
14.92250016016737
 30
0.0
 11
276.3429673554094
 21
10.2700211480327
 31
0.0
  0
LINE
  5
70
102
{ACAD_REACTORS
330
A9
102
}
330
49
100
AcDbEntity
  8
1
  6
Continuous
 62
     7
100
AcDbLine
 10
276.3429673554094
 20
10.2700211480327
 30
0.0
 11
278.5095415065727
 21
9.0200745223616
 31
0.0
  0
LINE
  5
71
102
{ACAD_REACTORS
330
A9
102
}
330
49
100
AcDbEntity
  8
1
  6
Continuous
 62
     7
100
AcDbLine
 10
278.1763932042462
 20
8.44261746499581
 30
0.0
 11
276.0098190530831
 21
9.69256409066691
 31
0.0
  0
LINE
  5
72
102
{ACAD_REACTORS
330
AA
102
}
330
49
100
AcDbEntity
  8
1
  6
Continuous
 62
     7
100
AcDbLine
 10
275.0096340220761
 20
14.15326939093666
 30
0.0
 11
275.0096340220761
 21
11.0392519172633
 31
0.0
  0
LINE
  5
73
102
{ACAD_REACTORS
330
AA
102
}
330
49
100
AcDbEntity
  8
1
  6
Continuous
 62
     7
100
AcDbLine
 10
275.0096340220761
 20
11.0392519172633
 30
0.0
 11
275.0096340220761
 21
10.84673060906323
 31
0.0
  0
LINE
  5
74
102
{ACAD_REACTORS
330
AA
102
}
330
49
100
AcDbEntity
  8
1
  6
Continuous
 62
     7
100
AcDbLine
 10
274.3429673554094
 20
10.84673060906323
 30
0.0
 11
274.3429673554094
 21
14.15326939093666
 31
0.0
  0
LINE
  5
75
102
{ACAD_REACTORS
330
AB
102
}
330
49
100
AcDbEntity
  8
1
  6
Continuous
 62
     7
100
AcDbLine
 10
281.5095415065727
 20
15.21122868885027
 30
0.0
 11
282.8428748399059
 21
14.44199791961944
 31
0.0
  0
LINE
  5
76
102
{ACAD_REACTORS
330
AB
102
}
330
49
100
AcDbEntity
  8
1
  6
Continuous
 62
     7
100
AcDbLine
 10
282.5097265375796
 20
13.86454086225376
 30
0.0
 11
281.6763006887428
 21
14.34536346735195
 31
0.0
  0
LINE
  5
77
102
{ACAD_REACTORS
330
AB
102
}
330
49
100
AcDbEntity
  8
1
  6
Continuous
 62
     7
100
AcDbLine
 10
281.6763006887428
 20
14.34536346735195
 30
0.0
 11
281.6763006887428
 21
12.83333333333326
 31
0.0
  0
LINE
  5
78
102
{ACAD_REACTORS
330
AB
102
}
330
49
100
AcDbEntity
  8
1
  6
Continuous
 62
     7
100
AcDbLine
 10
281.6763006887428
 20
12.83333333333326
 30
0.0
 11
282.6763006887428
 21
12.83333333333326
 31
0.0
  0
LINE
  5
79
102
{ACAD_REACTORS
330
AB
102
}
330
49
100
AcDbEntity
  8
1
  6
Continuous
 62
     7
100
AcDbLine
 10
282.6763006887428
 20
12.16666666666663
 30
0.0
 11
281.6763006887428
 21
12.16666666666663
 31
0.0
  0
LINE
  5
7A
102
{ACAD_REACTORS
330
AB
102
}
330
49
100
AcDbEntity
  8
1
  6
Continuous
 62
     7
100
AcDbLine
 10
281.6763006887428
 20
12.16666666666663
 30
0.0
 11
281.6763006887428
 21
10.65463653264794
 31
0.0
  0
LINE
  5
7B
102
{ACAD_REACTORS
330
AB
102
}
330
49
100
AcDbEntity
  8
1
  6
Continuous
 62
     7
100
AcDbLine
 10
281.6763006887428
 20
10.65463653264794
 30
0.0
 11
282.5097265375796
 21
11.13545913774624
 31
0.0
  0
LINE
  5
7C
102
{ACAD_REACTORS
330
AB
102
}
330
49
100
AcDbEntity
  8
1
  6
Continuous
 62
     7
100
AcDbLine
 10
282.8428748399059
 20
10.55800208038033
 30
0.0
 11
281.5095415065727
 21
9.78877131114973
 31
0.0
  0
LINE
  5
7D
330
49
100
AcDbEntity
  8
1
  6
Continuous
 62
     7
100
AcDbLine
 10
108.0000000000001
 20
25.0
 30
0.0
 11
292.0000000000001
 21
25.0
 31
0.0
  0
LINE
  5
7E
330
49
100
AcDbEntity
  8
1
  6
Continuous
 62
     7
100
AcDbLine
 10
115.0000000000001
 20
20.0
 30
0.0
 11
115.0000000000001
 21
25.0
 31
0.0
  0
LINE
  5
7F
330
49
100
AcDbEntity
  8
1
  6
Continuous
 62
     7
100
AcDbLine
 10
133.0000000000002
 20
20.0
 30
0.0
 11
133.0000000000002
 21
25.0
 31
0.0
  0
LINE
  5
80
330
49
100
AcDbEntity
  8
1
  6
Continuous
 62
     7
100
AcDbLine
 10
108.0000000000001
 20
30.0
 30
0.0
 11
292.0000000000001
 21
30.0
 31
0.0
  0
LINE
  5
81
330
49
100
AcDbEntity
  8
1
  6
Continuous
 62
     7
100
AcDbLine
 10
115.0000000000001
 20
25.0
 30
0.0
 11
115.0000000000001
 21
30.0
 31
0.0
  0
LINE
  5
82
330
49
100
AcDbEntity
  8
1
  6
Continuous
 62
     7
100
AcDbLine
 10
133.0000000000002
 20
25.0
 30
0.0
 11
133.0000000000002
 21
30.0
 31
0.0
  0
LINE
  5
83
330
49
100
AcDbEntity
  8
1
  6
Continuous
 62
     7
100
AcDbLine
 10
108.0000000000001
 20
35.0
 30
0.0
 11
292.0000000000001
 21
35.0
 31
0.0
  0
LINE
  5
84
330
49
100
AcDbEntity
  8
1
  6
Continuous
 62
     7
100
AcDbLine
 10
115.0000000000001
 20
30.0
 30
0.0
 11
115.0000000000001
 21
35.0
 31
0.0
  0
LINE
  5
85
330
49
100
AcDbEntity
  8
1
  6
Continuous
 62
     7
100
AcDbLine
 10
133.0000000000002
 20
30.0
 30
0.0
 11
133.0000000000002
 21
35.0
 31
0.0
  0
LINE
  5
86
330
49
100
AcDbEntity
  8
1
  6
Continuous
 62
     7
100
AcDbLine
 10
108.0000000000001
 20
40.0
 30
0.0
 11
292.0000000000001
 21
40.0
 31
0.0
  0
LINE
  5
87
330
49
100
AcDbEntity
  8
1
  6
Continuous
 62
     7
100
AcDbLine
 10
115.0000000000001
 20
35.0
 30
0.0
 11
115.0000000000001
 21
40.0
 31
0.0
  0
LINE
  5
88
330
49
100
AcDbEntity
  8
1
  6
Continuous
 62
     7
100
AcDbLine
 10
133.0000000000002
 20
35.0
 30
0.0
 11
133.0000000000002
 21
40.0
 31
0.0
  0
LINE
  5
89
330
49
100
AcDbEntity
  8
1
  6
Continuous
 62
     7
100
AcDbLine
 10
4.99999999999989
 20
189.0
 30
0.0
 11
4.99999999999989
 21
5.0
 31
0.0
  0
LINE
  5
8A
330
49
100
AcDbEntity
  8
1
  6
Continuous
 62
     7
100
AcDbLine
 10
108.0000000000001
 20
20.0
 30
0.0
 11
292.0000000000001
 21
20.0
 31
0.0
  0
LINE
  5
8B
330
49
100
AcDbEntity
  8
1
  6
Continuous
 62
     7
100
AcDbLine
 10
108.0000000000001
 20
4.99999999999989
 30
0.0
 11
108.0000000000001
 21
40.0
 31
0.0
  0
ARC
  5
8C
102
{ACAD_REACTORS
330
A8
102
}
330
49
100
AcDbEntity
  8
1
  6
Continuous
 62
     7
100
AcDbCircle
 10
277.2746002345514
 20
15.73121731203457
 30
0.0
 40
0.2649662124753346
100
AcDbArc
 50
30.00000000001307
 51
180.0
  0
ARC
  5
8D
102
{ACAD_REACTORS
330
A8
102
}
330
49
100
AcDbEntity
  8
1
  6
Continuous
 62
     7
100
AcDbCircle
 10
277.3429673554094
 20
10.84758507263291
 30
0.0
 40
0.3333333333333144
100
AcDbArc
 50
180.0
 51
0.0
  0
ARC
  5
8E
102
{ACAD_REACTORS
330
A8
102
}
330
49
100
AcDbEntity
  8
1
  6
Continuous
 62
     7
100
AcDbCircle
 10
280.0096340220762
 20
9.3082690706018
 30
0.0
 40
0.3333333333334281
100
AcDbArc
 50
180.0
 51
0.0
  0
ARC
  5
8F
102
{ACAD_REACTORS
330
A8
102
}
330
49
100
AcDbEntity
  8
1
  6
Continuous
 62
     7
100
AcDbCircle
 10
280.0780011429341
 20
15.73121731203457
 30
0.0
 40
0.2649662124753149
100
AcDbArc
 50
0.0
 51
149.9999999999746
  0
ARC
  5
90
102
{ACAD_REACTORS
330
A9
102
}
330
49
100
AcDbEntity
  8
1
  6
Continuous
 62
     7
100
AcDbCircle
 10
276.0096340220761
 20
14.92250016016737
 30
0.0
 40
0.3333333333333144
100
AcDbArc
 50
0.0
 51
180.0
  0
ARC
  5
91
102
{ACAD_REACTORS
330
A9
102
}
330
49
100
AcDbEntity
  8
1
  6
Continuous
 62
     7
100
AcDbCircle
 10
278.3429673554094
 20
8.7313459936787
 30
0.0
 40
0.3333333333333709
100
AcDbArc
 50
240.0183606311493
 51
60.01836063114089
  0
ARC
  5
92
102
{ACAD_REACTORS
330
AA
102
}
330
49
100
AcDbEntity
  8
1
  6
Continuous
 62
     7
100
AcDbCircle
 10
274.6763006887428
 20
14.15326939093666
 30
0.0
 40
0.3333333333333144
100
AcDbArc
 50
0.0
 51
180.0
  0
ARC
  5
93
102
{ACAD_REACTORS
330
AA
102
}
330
49
100
AcDbEntity
  8
1
  6
Continuous
 62
     7
100
AcDbCircle
 10
274.6763006887428
 20
10.84673060906323
 30
0.0
 40
0.3333333333333712
100
AcDbArc
 50
180.0
 51
0.0
  0
ARC
  5
94
102
{ACAD_REACTORS
330
AB
102
}
330
49
100
AcDbEntity
  8
1
  6
Continuous
 62
     7
100
AcDbCircle
 10
282.6763006887428
 20
14.15326939093666
 30
0.0
 40
0.3333333333333755
100
AcDbArc
 50
240.0183606311498
 51
60.01836063115638
  0
ARC
  5
95
102
{ACAD_REACTORS
330
AB
102
}
330
49
100
AcDbEntity
  8
1
  6
Continuous
 62
     7
100
AcDbCircle
 10
282.6763006887428
 20
12.5
 30
0.0
 40
0.3333333333333695
100
AcDbArc
 50
270.0
 51
90.0
  0
ARC
  5
96
102
{ACAD_REACTORS
330
AB
102
}
330
49
100
AcDbEntity
  8
1
  6
Continuous
 62
     7
100
AcDbCircle
 10
282.6763006887428
 20
10.84673060906323
 30
0.0
 40
0.3333333333333172
100
AcDbArc
 50
299.9816393688334
 51
119.9816393688407
  0
ARC
  5
97
102
{ACAD_REACTORS
330
A8
102
}
330
49
100
AcDbEntity
  8
1
  6
Continuous
 62
     7
100
AcDbCircle
 10
278.6763006887428
 20
12.83333333333326
 30
0.0
 40
0.166666666666709
100
AcDbArc
 50
209.9999999999622
 51
330.0000000000182
  0
ARC
  5
98
102
{ACAD_REACTORS
330
A9
102
}
330
49
100
AcDbEntity
  8
1
  6
Continuous
 62
     7
100
AcDbCircle
 10
276.3429673554094
 20
10.2700211480327
 30
0.0
 40
0.6666666666666288
100
AcDbArc
 50
180.0000000000104
 51
240.018360631158
  0
ARC
  5
99
330
49
100
AcDbEntity
  8
1
  6
Continuous
 62
     7
100
AcDbCircle
 10
270.3431524891829
 20
12.5
 30
0.0
 40
0.1666666666666407
100
AcDbArc
 50
119.9816393689046
 51
240.0183606311158
  0
ARC
  5
9A
330
49
100
AcDbEntity
  8
1
  6
Continuous
 62
     7
100
AcDbCircle
 10
287.0094488883027
 20
12.5
 30
0.0
 40
0.166666666666687
100
AcDbArc
 50
299.9816393688503
 51
60.01836063112923
  0
ARC
  5
9B
102
{ACAD_REACTORS
330
AB
102
}
330
49
100
AcDbEntity
  8
1
  6
Continuous
 62
     7
100
AcDbCircle
 10
281.3429673554094
 20
14.92250016016737
 30
0.0
 40
0.3333333333334024
100
AcDbArc
 50
60.01836063114121
 51
180.0
  0
ARC
  5
9C
102
{ACAD_REACTORS
330
AB
102
}
330
49
100
AcDbEntity
  8
1
  6
Continuous
 62
     7
100
AcDbCircle
 10
281.3429673554094
 20
10.07749983983263
 30
0.0
 40
0.3333333333332007
100
AcDbArc
 50
180.0
 51
299.9816393688589
  0
MTEXT
  5
9E
330
49
100
AcDbEntity
  8
1
 62
     7
100
AcDbMText
 10
119.6000000000001
 20
7.49999999999987
 30
0.0
 40
3.0
 41
0.0
 71
     4
 72
     1
  1
Radice
  7
CONVERTER_11
 73
     1
 44
1.32052821128451
  0
MTEXT
  5
9F
330
49
100
AcDbEntity
  8
1
 62
     7
100
AcDbMText
 10
109.0000000000001
 20
7.49999999999987
 30
0.0
 40
3.0
 41
0.0
 71
     4
 72
     1
  1
Sign.
  7
CONVERTER_11
 73
     1
 44
1.32052821128451
  0
MTEXT
  5
A0
330
49
100
AcDbEntity
  8
1
 62
     7
100
AcDbMText
 10
119.6000000000001
 20
12.49999999999987
 30
0.0
 40
3.0
 41
0.0
 71
     4
 72
     1
  1
16/01/14
  7
CONVERTER_11
 73
     1
 44
1.32052821128451
  0
MTEXT
  5
A1
330
49
100
AcDbEntity
  8
1
 62
     7
100
AcDbMText
 10
109.0000000000001
 20
12.49999999999987
 30
0.0
 40
3.0
 41
0.0
 71
     4
 72
     1
  1
Date
  7
CONVERTER_11
 73
     1
 44
1.32052821128451
  0
MTEXT
  5
A3
330
49
100
AcDbEntity
  8
1
 62
     7
100
AcDbMText
 10
123.0000000000001
 20
17.49999999999994
 30
0.0
 40
2.5
 41
0.0
 71
     5
 72
     1
  1
dimensions in mm
  7
CONVERTER_12
 73
     1
 44
0.60024009603842
  0
MTEXT
  5
A4
330
49
100
AcDbEntity
  8
1
 62
     7
100
AcDbMText
 10
151.4999999999998
 20
194.0000000000001
 30
0.0
 40
4.0
 41
0.0
 71
     5
 72
     1
  1
Diritti riservati      All rights reserved
  7
CONVERTER_11
 73
     1
 44
1.32052821128451
  0
MTEXT
  5
A5
330
49
100
AcDbEntity
  8
1
 62
     7
100
AcDbMText
 10
144.2763006887428
 20
12.5
 30
0.0
 40
4.5
 41
0.0
 71
     4
 72
     1
  1
CAVT 24.5 L\PHood top entry NPT 3/4"
  7
CONVERTER_11
 73
     1
 44
0.90036014405762
  0
MTEXT
  5
A6
330
49
100
AcDbEntity
  8
1
 62
     7
100
AcDbMText
 10
256.6763006887428
 20
16.26063942075598
 30
0.0
 40
3.0
 41
0.0
 71
     5
 72
     1
  1
Scale
  7
CONVERTER_11
 73
     1
 44
1.32052821128451
  0
MTEXT
  5
A7
330
49
100
AcDbEntity
  8
1
 62
     7
100
AcDbMText
 10
256.6763006887428
 20
10.06063942075605
 30
0.0
 40
4.5
 41
0.0
 71
     5
 72
     1
  1
1:1
  7
CONVERTER_11
 73
     1
 44
1.32052821128451
  0
HATCH
  5
A8
330
49
100
AcDbEntity
  8
1
  6
Continuous
 62
     7
100
AcDbHatch
 10
0.0
 20
0.0
 30
0.0
210
0.0
220
0.0
230
1.0
  2
SOLID
 70
     1
 71
     1
 91
        1
 92
        1
 93
       16
 72
     2
 10
277.2746002345514
 20
15.73121731203457
 40
0.2649662124753346
 50
30.00000000001307
 51
180.0
 73
     1
 72
     1
 10
277.0096340220761
 20
15.73121731203457
 11
277.0096340220761
 21
12.5
 72
     1
 10
277.0096340220761
 20
12.5
 11
277.0096340220761
 21
10.84758507263291
 72
     2
 10
277.3429673554094
 20
10.84758507263291
 40
0.3333333333333144
 50
180.0
 51
360.0
 73
     1
 72
     1
 10
277.6763006887428
 20
10.84758507263291
 11
277.6763006887428
 21
12.5
 72
     1
 10
277.6763006887428
 20
12.5
 11
277.6763006887428
 21
14.23205080756884
 72
     1
 10
277.6763006887428
 20
14.23205080756884
 11
278.5319631214453
 21
12.75
 72
     2
 10
278.6763006887428
 20
12.83333333333326
 40
0.166666666666709
 50
209.9999999999622
 51
330.0000000000182
 73
     1
 72
     1
 10
278.8206382560402
 20
12.75
 11
279.6763006887428
 21
14.23205080756884
 72
     1
 10
279.6763006887428
 20
14.23205080756884
 11
279.6763006887428
 21
12.5
 72
     1
 10
279.6763006887428
 20
12.5
 11
279.6763006887428
 21
9.308269070601796
 72
     2
 10
280.0096340220762
 20
9.308269070601796
 40
0.3333333333334281
 50
180.0
 51
360.0
 73
     1
 72
     1
 10
280.3429673554094
 20
9.308269070601796
 11
280.3429673554094
 21
15.73121731203457
 72
     2
 10
280.0780011429341
 20
15.73121731203457
 40
0.2649662124753149
 50
0.0
 51
149.9999999999746
 73
     1
 72
     1
 10
279.8485336717861
 20
15.86370041827229
 11
278.6763006887428
 21
13.83333333333326
 72
     1
 10
278.6763006887428
 20
13.83333333333326
 11
277.5040677056995
 21
15.86370041827229
 97
       16
330
6D
330
8F
330
6C
330
8E
330
6B
330
5F
330
60
330
97
330
61
330
62
330
6A
330
8D
330
69
330
67
330
8C
330
68
 75
     0
 76
     1
 98
        1
 10
0.0
 20
0.0
  0
HATCH
  5
A9
330
49
100
AcDbEntity
  8
1
  6
Continuous
 62
     7
100
AcDbHatch
 10
0.0
 20
0.0
 30
0.0
210
0.0
220
0.0
230
1.0
  2
SOLID
 70
     1
 71
     1
 91
        1
 92
        1
 93
        7
 72
     1
 10
276.3429673554094
 20
14.92250016016737
 11
276.3429673554094
 21
10.2700211480327
 72
     1
 10
276.3429673554094
 20
10.2700211480327
 11
278.5095415065727
 21
9.020074522361597
 72
     2
 10
278.3429673554094
 20
8.731345993678701
 40
0.3333333333333709
 50
299.9816393688591
 51
479.9816393688507
 73
     0
 72
     1
 10
278.1763932042462
 20
8.442617464995806
 11
276.0098190530831
 21
9.692564090666906
 72
     2
 10
276.3429673554094
 20
10.2700211480327
 40
0.6666666666666288
 50
119.981639368842
 51
179.9999999999896
 73
     0
 72
     1
 10
275.6763006887428
 20
10.27002114803258
 11
275.6763006887428
 21
14.92250016016737
 72
     2
 10
276.0096340220761
 20
14.92250016016737
 40
0.3333333333333144
 50
180.0
 51
360.0
 73
     0
 97
        7
330
6F
330
70
330
91
330
71
330
98
330
6E
330
90
 75
     0
 76
     1
 98
        1
 10
0.0
 20
0.0
  0
HATCH
  5
AA
330
49
100
AcDbEntity
  8
1
  6
Continuous
 62
     7
100
AcDbHatch
 10
0.0
 20
0.0
 30
0.0
210
0.0
220
0.0
230
1.0
  2
SOLID
 70
     1
 71
     1
 91
        1
 92
        1
 93
        5
 72
     1
 10
275.0096340220761
 20
14.15326939093666
 11
275.0096340220761
 21
11.0392519172633
 72
     1
 10
275.0096340220761
 20
11.0392519172633
 11
275.0096340220761
 21
10.84673060906323
 72
     2
 10
274.6763006887428
 20
10.84673060906323
 40
0.3333333333333712
 50
0.0
 51
180.0
 73
     0
 72
     1
 10
274.3429673554094
 20
10.84673060906323
 11
274.3429673554094
 21
14.15326939093666
 72
     2
 10
274.6763006887428
 20
14.15326939093666
 40
0.3333333333333144
 50
180.0
 51
360.0
 73
     0
 97
        5
330
72
330
73
330
93
330
74
330
92
 75
     0
 76
     1
 98
        1
 10
0.0
 20
0.0
  0
HATCH
  5
AB
330
49
100
AcDbEntity
  8
1
  6
Continuous
 62
     7
100
AcDbHatch
 10
0.0
 20
0.0
 30
0.0
210
0.0
220
0.0
230
1.0
  2
SOLID
 70
     1
 71
     1
 91
        1
 92
        1
 93
       14
 72
     1
 10
282.5097265375796
 20
13.86454086225376
 11
281.6763006887428
 21
14.34536346735195
 72
     1
 10
281.6763006887428
 20
14.34536346735195
 11
281.6763006887428
 21
12.83333333333326
 72
     1
 10
281.6763006887428
 20
12.83333333333326
 11
282.6763006887428
 21
12.83333333333326
 72
     2
 10
282.6763006887428
 20
12.5
 40
0.3333333333333695
 50
270.0
 51
450.0
 73
     0
 72
     1
 10
282.6763006887428
 20
12.16666666666663
 11
281.6763006887428
 21
12.16666666666663
 72
     1
 10
281.6763006887428
 20
12.16666666666663
 11
281.6763006887428
 21
10.65463653264794
 72
     1
 10
281.6763006887428
 20
10.65463653264794
 11
282.5097265375796
 21
11.13545913774624
 72
     2
 10
282.6763006887428
 20
10.84673060906323
 40
0.3333333333333172
 50
240.0183606311593
 51
420.0183606311667
 73
     0
 72
     1
 10
282.8428748399059
 20
10.55800208038033
 11
281.5095415065727
 21
9.78877131114973
 72
     2
 10
281.3429673554094
 20
10.07749983983263
 40
0.3333333333332007
 50
60.01836063114119
 51
180.0
 73
     0
 72
     1
 10
281.0096340220762
 20
10.07749983983263
 11
281.0096340220762
 21
14.92250016016737
 72
     2
 10
281.3429673554094
 20
14.92250016016737
 40
0.3333333333334024
 50
180.0
 51
299.9816393688589
 73
     0
 72
     1
 10
281.5095415065727
 20
15.21122868885027
 11
282.8428748399059
 21
14.44199791961944
 72
     2
 10
282.6763006887428
 20
14.15326939093666
 40
0.3333333333333755
 50
299.9816393688436
 51
479.9816393688502
 73
     0
 97
       14
330
75
330
9B
330
5E
330
9C
330
7C
330
96
330
7B
330
7A
330
79
330
95
330
78
330
77
330
76
330
94
 75
     0
 76
     1
 98
        1
 10
0.0
 20
0.0
  0
ENDBLK
  5
4B
330
49
100
AcDbEntity
  8
0
100
AcDbBlockEnd
  0
BLOCK
  5
4E
330
4C
100
AcDbEntity
  8
0
100
AcDbBlockBegin
  2
A4_oriz
 70
     0
 10
297.0000000000001
 20
0.0
 30
0.0
  3
A4_oriz
  1

  0
INSERT
  5
4D
330
4C
100
AcDbEntity
  8
1
100
AcDbBlockReference
  2
_formato_A4
 10
297.0000000000001
 20
0.0
 30
0.0
  0
ENDBLK
  5
4F
330
4C
100
AcDbEntity
  8
0
100
AcDbBlockEnd
  0
BLOCK
  5
286
330
27E
100
AcDbEntity
  8
0
100
AcDbBlockBegin
  2
*D3
 70
     1
 10
0.0
 20
0.0
 30
0.0
  3
*D3
  1

  0
LINE
  5
27F
330
27E
100
AcDbEntity
  8
Bemaßungen_TC_020513_DIN_
  6
Continuous
 62
     7
100
AcDbLine
 10
42.71902586944073
 20
66.18793284743509
 30
0.0
 11
162.7190258694411
 21
66.18793284743509
 31
0.0
  0
LINE
  5
280
330
27E
100
AcDbEntity
  8
Bemaßungen_TC_020513_DIN_
  6
Continuous
 62
     7
100
AcDbLine
 10
42.71902586944073
 20
75.18793284743509
 30
0.0
 11
42.71902586944073
 21
64.18793284743509
 31
0.0
  0
LINE
  5
281
330
27E
100
AcDbEntity
  8
Bemaßungen_TC_020513_DIN_
  6
Continuous
 62
     7
100
AcDbLine
 10
162.7190258694411
 20
75.18793284743509
 30
0.0
 11
162.7190258694411
 21
64.18793284743509
 31
0.0
  0
SOLID
  5
282
330
27E
100
AcDbEntity
  8
Bemaßungen_TC_020513_DIN_
 62
     7
100
AcDbTrace
 10
45.21902586944073
 20
66.51706409140358
 30
0.0
 11
45.21902586944073
 21
65.8588016034666
 31
0.0
 12
42.71902586944073
 22
66.18793284743509
 32
0.0
 13
42.71902586944073
 23
66.18793284743509
 33
0.0
  0
SOLID
  5
283
330
27E
100
AcDbEntity
  8
Bemaßungen_TC_020513_DIN_
 62
     7
100
AcDbTrace
 10
160.2190258694411
 20
65.8588016034666
 30
0.0
 11
160.2190258694411
 21
66.51706409140358
 31
0.0
 12
162.7190258694411
 22
66.18793284743509
 32
0.0
 13
162.7190258694411
 23
66.18793284743509
 33
0.0
  0
MTEXT
  5
285
330
27E
100
AcDbEntity
  8
Bemaßungen_TC_020513_DIN_
 62
     7
100
AcDbMText
 10
100.5023592027742
 20
67.02275871808185
 30
0.0
 40
3.5
 41
0.0
 71
     7
 72
     1
  1
120
  7
CONVERTER_13
 11
0.9999999999970619
 21
2.424068405545306E-6
 31
0.0
 73
     1
 44
0.45454545454545
  0
ENDBLK
  5
287
330
27E
100
AcDbEntity
  8
0
100
AcDbBlockEnd
  0
BLOCK
  5
291
330
28A
100
AcDbEntity
  8
0
100
AcDbBlockBegin
  2
*D4
 70
     1
 10
0.0
 20
0.0
 30
0.0
  3
*D4
  1

  0
LINE
  5
28B
330
28A
100
AcDbEntity
  8
Bemaßungen_TC_020513_DIN_
  6
Continuous
 62
     7
100
AcDbLine
 10
35.2190258694407
 20
56.18793284743509
 30
0.0
 11
170.2190258694411
 21
56.18793284743509
 31
0.0
  0
LINE
  5
28C
330
28A
100
AcDbEntity
  8
Bemaßungen_TC_020513_DIN_
  6
Continuous
 62
     7
100
AcDbLine
 10
35.2190258694407
 20
82.68793284743509
 30
0.0
 11
35.2190258694407
 21
54.18793284743509
 31
0.0
  0
LINE
  5
28D
330
28A
100
AcDbEntity
  8
Bemaßungen_TC_020513_DIN_
  6
Continuous
 62
     7
100
AcDbLine
 10
170.2190258694411
 20
82.68793284743509
 30
0.0
 11
170.2190258694411
 21
54.18793284743509
 31
0.0
  0
SOLID
  5
28E
330
28A
100
AcDbEntity
  8
Bemaßungen_TC_020513_DIN_
 62
     7
100
AcDbTrace
 10
37.7190258694407
 20
56.51706409140358
 30
0.0
 11
37.7190258694407
 21
55.8588016034666
 31
0.0
 12
35.2190258694407
 22
56.18793284743509
 32
0.0
 13
35.2190258694407
 23
56.18793284743509
 33
0.0
  0
SOLID
  5
28F
330
28A
100
AcDbEntity
  8
Bemaßungen_TC_020513_DIN_
 62
     7
100
AcDbTrace
 10
167.7190258694411
 20
55.8588016034666
 30
0.0
 11
167.7190258694411
 21
56.51706409140358
 31
0.0
 12
170.2190258694411
 22
56.18793284743509
 32
0.0
 13
170.2190258694411
 23
56.18793284743509
 33
0.0
  0
MTEXT
  5
290
330
28A
100
AcDbEntity
  8
Bemaßungen_TC_020513_DIN_
 62
     7
100
AcDbMText
 10
100.5023592027742
 20
57.02275871808185
 30
0.0
 40
3.5
 41
0.0
 71
     7
 72
     1
  1
135
  7
CONVERTER_13
 11
0.9999999999970619
 21
2.424068405545306E-6
 31
0.0
 73
     1
 44
0.45454545454545
  0
ENDBLK
  5
292
330
28A
100
AcDbEntity
  8
0
100
AcDbBlockEnd
  0
BLOCK
  5
29C
330
295
100
AcDbEntity
  8
0
100
AcDbBlockBegin
  2
*D5
 70
     1
 10
0.0
 20
0.0
 30
0.0
  3
*D5
  1

  0
LINE
  5
296
330
295
100
AcDbEntity
  8
Bemaßungen_TC_020513_DIN_
  6
Continuous
 62
     7
100
AcDbLine
 10
221.7054879305872
 20
66.18793284743509
 30
0.0
 11
264.7054879305872
 21
66.18793284743509
 31
0.0
  0
LINE
  5
297
330
295
100
AcDbEntity
  8
Bemaßungen_TC_020513_DIN_
  6
Continuous
 62
     7
100
AcDbLine
 10
221.7054879305872
 20
81.31293284743509
 30
0.0
 11
221.7054879305872
 21
64.18793284743509
 31
0.0
  0
LINE
  5
298
330
295
100
AcDbEntity
  8
Bemaßungen_TC_020513_DIN_
  6
Continuous
 62
     7
100
AcDbLine
 10
264.7054879305872
 20
81.31293284743509
 30
0.0
 11
264.7054879305872
 21
64.18793284743509
 31
0.0
  0
SOLID
  5
299
330
295
100
AcDbEntity
  8
Bemaßungen_TC_020513_DIN_
 62
     7
100
AcDbTrace
 10
224.2054879305872
 20
66.51706409140358
 30
0.0
 11
224.2054879305872
 21
65.8588016034666
 31
0.0
 12
221.7054879305872
 22
66.18793284743509
 32
0.0
 13
221.7054879305872
 23
66.18793284743509
 33
0.0
  0
SOLID
  5
29A
330
295
100
AcDbEntity
  8
Bemaßungen_TC_020513_DIN_
 62
     7
100
AcDbTrace
 10
262.2054879305872
 20
65.8588016034666
 30
0.0
 11
262.2054879305872
 21
66.51706409140358
 31
0.0
 12
264.7054879305872
 22
66.18793284743509
 32
0.0
 13
264.7054879305872
 23
66.18793284743509
 33
0.0
  0
MTEXT
  5
29B
330
295
100
AcDbEntity
  8
Bemaßungen_TC_020513_DIN_
 62
     7
100
AcDbMText
 10
241.7471545972539
 20
67.02275871808185
 30
0.0
 40
3.5
 41
0.0
 71
     7
 72
     1
  1
43
  7
CONVERTER_13
 11
0.9999999999970619
 21
2.424068405545306E-6
 31
0.0
 73
     1
 44
0.45454545454545
  0
ENDBLK
  5
29D
330
295
100
AcDbEntity
  8
0
100
AcDbBlockEnd
  0
BLOCK
  5
2A7
330
2A0
100
AcDbEntity
  8
0
100
AcDbBlockBegin
  2
*D6
 70
     1
 10
0.0
 20
0.0
 30
0.0
  3
*D6
  1

  0
LINE
  5
2A1
330
2A0
100
AcDbEntity
  8
Bemaßungen_TC_020513_DIN_
  6
Continuous
 62
     7
100
AcDbLine
 10
180.2190258694411
 20
76.18793284743496
 30
0.0
 11
180.2190258694411
 21
152.187932847435
 31
0.0
  0
LINE
  5
2A2
330
2A0
100
AcDbEntity
  8
Bemaßungen_TC_020513_DIN_
  6
Continuous
 62
     7
100
AcDbLine
 10
157.7190258694411
 20
76.18793284743506
 30
0.0
 11
182.2190258694411
 21
76.18793284743506
 31
0.0
  0
LINE
  5
2A3
330
2A0
100
AcDbEntity
  8
Bemaßungen_TC_020513_DIN_
  6
Continuous
 62
     7
100
AcDbLine
 10
148.6058417962792
 20
152.1879328474353
 30
0.0
 11
182.2190258694411
 21
152.1879328474353
 31
0.0
  0
SOLID
  5
2A4
330
2A0
100
AcDbEntity
  8
Bemaßungen_TC_020513_DIN_
 62
     7
100
AcDbTrace
 10
179.8898946254727
 20
78.68793284743496
 30
0.0
 11
180.5481571134096
 21
78.68793284743496
 31
0.0
 12
180.2190258694411
 22
76.18793284743496
 32
0.0
 13
180.2190258694411
 23
76.18793284743496
 33
0.0
  0
SOLID
  5
2A5
330
2A0
100
AcDbEntity
  8
Bemaßungen_TC_020513_DIN_
 62
     7
100
AcDbTrace
 10
180.5481571134096
 20
149.687932847435
 30
0.0
 11
179.8898946254727
 21
149.687932847435
 31
0.0
 12
180.2190258694411
 22
152.187932847435
 32
0.0
 13
180.2190258694411
 23
152.187932847435
 33
0.0
  0
MTEXT
  5
2A6
330
2A0
100
AcDbEntity
  8
Bemaßungen_TC_020513_DIN_
 62
     7
100
AcDbMText
 10
179.3841999987944
 20
112.7295995141019
 30
0.0
 40
3.5
 41
0.0
 71
     7
 72
     1
  1
76
  7
CONVERTER_13
 11
0.0
 21
1.0
 31
0.0
 73
     1
 44
0.45454545454545
  0
ENDBLK
  5
2A8
330
2A0
100
AcDbEntity
  8
0
100
AcDbBlockEnd
  0
BLOCK
  5
2B2
330
2AB
100
AcDbEntity
  8
0
100
AcDbBlockBegin
  2
*D7
 70
     1
 10
0.0
 20
0.0
 30
0.0
  3
*D7
  1

  0
LINE
  5
2AC
330
2AB
100
AcDbEntity
  8
Bemaßungen_TC_020513_DIN_
  6
Continuous
 62
     7
100
AcDbLine
 10
190.2190258694411
 20
167.1879328474353
 30
0.0
 11
190.2190258694411
 21
76.18793284743506
 31
0.0
  0
LINE
  5
2AD
330
2AB
100
AcDbEntity
  8
Bemaßungen_TC_020513_DIN_
  6
Continuous
 62
     7
100
AcDbLine
 10
125.2190258694411
 20
167.1879328474353
 30
0.0
 11
192.2190258694411
 21
167.1879328474353
 31
0.0
  0
LINE
  5
2AE
330
2AB
100
AcDbEntity
  8
Bemaßungen_TC_020513_DIN_
  6
Continuous
 62
     7
100
AcDbLine
 10
157.7190258694411
 20
76.18793284743506
 30
0.0
 11
192.2190258694411
 21
76.18793284743506
 31
0.0
  0
SOLID
  5
2AF
330
2AB
100
AcDbEntity
  8
Bemaßungen_TC_020513_DIN_
 62
     7
100
AcDbTrace
 10
190.5481571134096
 20
164.6879328474353
 30
0.0
 11
189.8898946254727
 21
164.6879328474353
 31
0.0
 12
190.2190258694411
 22
167.1879328474353
 32
0.0
 13
190.2190258694411
 23
167.1879328474353
 33
0.0
  0
SOLID
  5
2B0
330
2AB
100
AcDbEntity
  8
Bemaßungen_TC_020513_DIN_
 62
     7
100
AcDbTrace
 10
189.8898946254727
 20
78.68793284743506
 30
0.0
 11
190.5481571134096
 21
78.68793284743506
 31
0.0
 12
190.2190258694411
 22
76.18793284743506
 32
0.0
 13
190.2190258694411
 23
76.18793284743506
 33
0.0
  0
MTEXT
  5
2B1
330
2AB
100
AcDbEntity
  8
Bemaßungen_TC_020513_DIN_
 62
     7
100
AcDbMText
 10
189.3841999987944
 20
120.4162661807685
 30
0.0
 40
3.5
 41
0.0
 71
     7
 72
     1
  1
91
  7
CONVERTER_13
 11
0.0
 21
1.0
 31
0.0
 73
     1
 44
0.45454545454545
  0
ENDBLK
  5
2B3
330
2AB
100
AcDbEntity
  8
0
100
AcDbBlockEnd
  0
BLOCK
  5
2BD
330
2B6
100
AcDbEntity
  8
0
100
AcDbBlockBegin
  2
*D8
 70
     1
 10
0.0
 20
0.0
 30
0.0
  3
*D8
  1

  0
LINE
  5
2B7
330
2B6
100
AcDbEntity
  8
Bemaßungen_TC_020513_DIN_
  6
Continuous
 62
     7
100
AcDbLine
 10
88.46902586944087
 20
177.1879328474354
 30
0.0
 11
116.9690258694413
 21
177.1879328474354
 31
0.0
  0
LINE
  5
2B8
330
2B6
100
AcDbEntity
  8
Bemaßungen_TC_020513_DIN_
  6
Continuous
 62
     7
100
AcDbLine
 10
88.46902586944087
 20
168.1879328474354
 30
0.0
 11
88.46902586944087
 21
179.1879328474354
 31
0.0
  0
LINE
  5
2B9
330
2B6
100
AcDbEntity
  8
Bemaßungen_TC_020513_DIN_
  6
Continuous
 62
     7
100
AcDbLine
 10
116.9690258694413
 20
168.1879328474354
 30
0.0
 11
116.9690258694413
 21
179.1879328474354
 31
0.0
  0
SOLID
  5
2BA
330
2B6
100
AcDbEntity
  8
Bemaßungen_TC_020513_DIN_
 62
     7
100
AcDbTrace
 10
90.96902586944087
 20
177.5170640914039
 30
0.0
 11
90.96902586944087
 21
176.8588016034669
 31
0.0
 12
88.46902586944087
 22
177.1879328474354
 32
0.0
 13
88.46902586944087
 23
177.1879328474354
 33
0.0
  0
SOLID
  5
2BB
330
2B6
100
AcDbEntity
  8
Bemaßungen_TC_020513_DIN_
 62
     7
100
AcDbTrace
 10
114.4690258694413
 20
176.8588016034669
 30
0.0
 11
114.4690258694413
 21
177.5170640914039
 31
0.0
 12
116.9690258694413
 22
177.1879328474354
 32
0.0
 13
116.9690258694413
 23
177.1879328474354
 33
0.0
  0
MTEXT
  5
2BC
330
2B6
100
AcDbEntity
  8
Bemaßungen_TC_020513_DIN_
 62
     7
100
AcDbMText
 10
97.28819253610777
 20
178.0401716534056
 30
0.0
 40
3.5
 41
0.0
 71
     7
 72
     1
  1
NPT 3/4"
  7
CONVERTER_13
 11
0.9999999999970619
 21
2.424068405545306E-6
 31
0.0
 73
     1
 44
0.45454545454545
  0
ENDBLK
  5
2BE
330
2B6
100
AcDbEntity
  8
0
100
AcDbBlockEnd
  0
ENDSEC
  0
SECTION
  2
ENTITIES
  0
INSERT
  5
50
330
1F
100
AcDbEntity
  8
0
100
AcDbBlockReference
  2
A4_oriz
 10
297.0000000000001
 20
0.0
 30
0.0
  0
POINT
  5
AC
330
1F
100
AcDbEntity
  8
Bemaßungen_TC_020513_DIN_
 62
     7
100
AcDbPoint
 10
42.71902586944077
 20
76.18793284743509
 30
0.0
  0
POINT
  5
AD
330
1F
100
AcDbEntity
  8
Bemaßungen_TC_020513_DIN_
 62
     7
100
AcDbPoint
 10
162.7190258694411
 20
76.18793284743509
 30
0.0
  0
POINT
  5
AE
330
1F
100
AcDbEntity
  8
Bemaßungen_TC_020513_DIN_
 62
     7
100
AcDbPoint
 10
35.21902586944071
 20
83.68793284743509
 30
0.0
  0
POINT
  5
AF
330
1F
100
AcDbEntity
  8
Bemaßungen_TC_020513_DIN_
 62
     7
100
AcDbPoint
 10
170.2190258694411
 20
83.68793284743509
 30
0.0
  0
POINT
  5
B0
330
1F
100
AcDbEntity
  8
Bemaßungen_TC_020513_DIN_
 62
     7
100
AcDbPoint
 10
221.7054879305872
 20
82.31293284743509
 30
0.0
  0
POINT
  5
B1
330
1F
100
AcDbEntity
  8
Bemaßungen_TC_020513_DIN_
 62
     7
100
AcDbPoint
 10
264.7054879305872
 20
82.31293284743509
 30
0.0
  0
POINT
  5
B2
330
1F
100
AcDbEntity
  8
Bemaßungen_TC_020513_DIN_
 62
     7
100
AcDbPoint
 10
156.7190258694411
 20
76.18793284743509
 30
0.0
  0
POINT
  5
B3
330
1F
100
AcDbEntity
  8
Bemaßungen_TC_020513_DIN_
 62
     7
100
AcDbPoint
 10
147.6058417962792
 20
152.1879328474354
 30
0.0
  0
POINT
  5
B4
330
1F
100
AcDbEntity
  8
Bemaßungen_TC_020513_DIN_
 62
     7
100
AcDbPoint
 10
124.2190258694411
 20
167.1879328474354
 30
0.0
  0
POINT
  5
B5
330
1F
100
AcDbEntity
  8
Bemaßungen_TC_020513_DIN_
 62
     7
100
AcDbPoint
 10
156.7190258694411
 20
76.18793284743509
 30
0.0
  0
POINT
  5
B6
330
1F
100
AcDbEntity
  8
Bemaßungen_TC_020513_DIN_
 62
     7
100
AcDbPoint
 10
88.46902586944083
 20
167.1879328474354
 30
0.0
  0
POINT
  5
B7
330
1F
100
AcDbEntity
  8
Bemaßungen_TC_020513_DIN_
 62
     7
100
AcDbPoint
 10
116.9690258694413
 20
167.1879328474354
 30
0.0
  0
LINE
  5
B8
330
1F
100
AcDbEntity
  8
Sichtbare_Kanten_TC_020513_DIN_
  6
Continuous
 62
     7
100
AcDbLine
 10
147.6058417962792
 20
152.1879328474354
 30
0.0
 11
112.7813317681902
 21
152.1879328474354
 31
0.0
  0
LINE
  5
B9
330
1F
100
AcDbEntity
  8
Sichtbare_Kanten_TC_020513_DIN_
  6
Continuous
 62
     7
100
AcDbLine
 10
92.65671997069171
 20
152.1879328474354
 30
0.0
 11
57.83220994260256
 21
152.1879328474354
 31
0.0
  0
LINE
  5
BA
330
1F
100
AcDbEntity
  8
Sichtbare_Kanten_TC_020513_DIN_
  6
Continuous
 62
     7
100
AcDbLine
 10
92.65671997069171
 20
152.1879328474354
 30
0.0
 11
112.7813317681902
 21
152.1879328474354
 31
0.0
  0
LINE
  5
BB
330
1F
100
AcDbEntity
  8
Sichtbare_Kanten_TC_020513_DIN_
  6
Continuous
 62
     7
100
AcDbLine
 10
81.21902586944077
 20
167.1879328474354
 30
0.0
 11
124.2190258694411
 21
167.1879328474354
 31
0.0
  0
LINE
  5
BC
330
1F
100
AcDbEntity
  8
Sichtbare_Kanten_TC_020513_DIN_
  6
Continuous
 62
     7
100
AcDbLine
 10
124.2190258694411
 20
167.1879328474354
 30
0.0
 11
124.2190258694411
 21
152.1879328474354
 31
0.0
  0
LINE
  5
BD
330
1F
100
AcDbEntity
  8
Sichtbare_Kanten_TC_020513_DIN_
  6
Continuous
 62
     7
100
AcDbLine
 10
81.21902586944077
 20
167.1879328474354
 30
0.0
 11
81.21902586944077
 21
152.1879328474354
 31
0.0
  0
LINE
  5
BE
330
1F
100
AcDbEntity
  8
Sichtbare_Kanten_TC_020513_DIN_
  6
Continuous
 62
     7
100
AcDbLine
 10
147.6058417962792
 20
152.1879328474354
 30
0.0
 11
151.1781382403901
 21
152.1879328474354
 31
0.0
  0
LINE
  5
BF
330
1F
100
AcDbEntity
  8
Sichtbare_Kanten_TC_020513_DIN_
  6
Continuous
 62
     7
100
AcDbLine
 10
54.25991349849113
 20
152.1879328474354
 30
0.0
 11
57.83220994260256
 21
152.1879328474354
 31
0.0
  0
LINE
  5
C0
330
1F
100
AcDbEntity
  8
Sichtbare_Kanten_TC_020513_DIN_
  6
Continuous
 62
     7
100
AcDbLine
 10
42.71902586944077
 20
88.43793284743509
 30
0.0
 11
42.71902586944077
 21
76.18793284743509
 31
0.0
  0
LINE
  5
C1
330
1F
100
AcDbEntity
  8
Sichtbare_Kanten_TC_020513_DIN_
  6
Continuous
 62
     7
100
AcDbLine
 10
42.71902586944077
 20
90.93793284743509
 30
0.0
 11
42.71902586944077
 21
89.93793284743509
 31
0.0
  0
LINE
  5
C2
330
1F
100
AcDbEntity
  8
Sichtbare_Kanten_TC_020513_DIN_
  6
Continuous
 62
     7
100
AcDbLine
 10
42.71902586944077
 20
93.43793284743509
 30
0.0
 11
42.71902586944077
 21
92.43793284743509
 31
0.0
  0
LINE
  5
C3
330
1F
100
AcDbEntity
  8
Sichtbare_Kanten_TC_020513_DIN_
  6
Continuous
 62
     7
100
AcDbLine
 10
42.71902586944077
 20
95.93793284743509
 30
0.0
 11
42.71902586944077
 21
94.93793284743509
 31
0.0
  0
LINE
  5
C4
330
1F
100
AcDbEntity
  8
Sichtbare_Kanten_TC_020513_DIN_
  6
Continuous
 62
     7
100
AcDbLine
 10
42.71902586944077
 20
98.43793284743509
 30
0.0
 11
42.71902586944077
 21
97.43793284743509
 31
0.0
  0
LINE
  5
C5
330
1F
100
AcDbEntity
  8
Sichtbare_Kanten_TC_020513_DIN_
  6
Continuous
 62
     7
100
AcDbLine
 10
42.71902586944077
 20
100.9379328474351
 30
0.0
 11
42.71902586944077
 21
99.93793284743509
 31
0.0
  0
LINE
  5
C6
330
1F
100
AcDbEntity
  8
Sichtbare_Kanten_TC_020513_DIN_
  6
Continuous
 62
     7
100
AcDbLine
 10
42.71902586944077
 20
105.0812950156434
 30
0.0
 11
42.71902586944077
 21
102.4379328474354
 31
0.0
  0
LINE
  5
C7
330
1F
100
AcDbEntity
  8
Sichtbare_Kanten_TC_020513_DIN_
  6
Continuous
 62
     7
100
AcDbLine
 10
162.7190258694411
 20
102.4379328474354
 30
0.0
 11
162.7190258694411
 21
105.0812950156434
 31
0.0
  0
LINE
  5
C8
330
1F
100
AcDbEntity
  8
Sichtbare_Kanten_TC_020513_DIN_
  6
Continuous
 62
     7
100
AcDbLine
 10
162.7190258694411
 20
99.93793284743509
 30
0.0
 11
162.7190258694411
 21
100.9379328474351
 31
0.0
  0
LINE
  5
C9
330
1F
100
AcDbEntity
  8
Sichtbare_Kanten_TC_020513_DIN_
  6
Continuous
 62
     7
100
AcDbLine
 10
162.7190258694411
 20
97.43793284743509
 30
0.0
 11
162.7190258694411
 21
98.43793284743509
 31
0.0
  0
LINE
  5
CA
330
1F
100
AcDbEntity
  8
Sichtbare_Kanten_TC_020513_DIN_
  6
Continuous
 62
     7
100
AcDbLine
 10
162.7190258694411
 20
94.93793284743509
 30
0.0
 11
162.7190258694411
 21
95.93793284743509
 31
0.0
  0
LINE
  5
CB
330
1F
100
AcDbEntity
  8
Sichtbare_Kanten_TC_020513_DIN_
  6
Continuous
 62
     7
100
AcDbLine
 10
162.7190258694411
 20
92.43793284743509
 30
0.0
 11
162.7190258694411
 21
93.43793284743509
 31
0.0
  0
LINE
  5
CC
330
1F
100
AcDbEntity
  8
Sichtbare_Kanten_TC_020513_DIN_
  6
Continuous
 62
     7
100
AcDbLine
 10
162.7190258694411
 20
89.93793284743509
 30
0.0
 11
162.7190258694411
 21
90.93793284743509
 31
0.0
  0
LINE
  5
CD
330
1F
100
AcDbEntity
  8
Sichtbare_Kanten_TC_020513_DIN_
  6
Continuous
 62
     7
100
AcDbLine
 10
162.7190258694411
 20
76.18793284743509
 30
0.0
 11
162.7190258694411
 21
88.43793284743509
 31
0.0
  0
LINE
  5
CE
330
1F
100
AcDbEntity
  8
Sichtbare_Kanten_TC_020513_DIN_
  6
Continuous
 62
     7
100
AcDbLine
 10
48.71902586944077
 20
100.9379328474351
 30
0.0
 11
42.71902586944077
 21
100.9379328474351
 31
0.0
  0
LINE
  5
CF
330
1F
100
AcDbEntity
  8
Sichtbare_Kanten_TC_020513_DIN_
  6
Continuous
 62
     7
100
AcDbLine
 10
162.7190258694411
 20
100.9379328474351
 30
0.0
 11
156.7190258694411
 21
100.9379328474351
 31
0.0
  0
LINE
  5
D0
330
1F
100
AcDbEntity
  8
Sichtbare_Kanten_TC_020513_DIN_
  6
Continuous
 62
     7
100
AcDbLine
 10
156.7190258694411
 20
99.93793284743509
 30
0.0
 11
162.7190258694411
 21
99.93793284743509
 31
0.0
  0
LINE
  5
D1
330
1F
100
AcDbEntity
  8
Sichtbare_Kanten_TC_020513_DIN_
  6
Continuous
 62
     7
100
AcDbLine
 10
42.71902586944077
 20
99.93793284743509
 30
0.0
 11
48.71902586944077
 21
99.93793284743509
 31
0.0
  0
LINE
  5
D2
330
1F
100
AcDbEntity
  8
Sichtbare_Kanten_TC_020513_DIN_
  6
Continuous
 62
     7
100
AcDbLine
 10
42.71902586944077
 20
102.4379328474354
 30
0.0
 11
48.71902586944077
 21
102.4379328474354
 31
0.0
  0
LINE
  5
D3
330
1F
100
AcDbEntity
  8
Sichtbare_Kanten_TC_020513_DIN_
  6
Continuous
 62
     7
100
AcDbLine
 10
156.7190258694411
 20
102.4379328474354
 30
0.0
 11
162.7190258694411
 21
102.4379328474354
 31
0.0
  0
LINE
  5
D4
330
1F
100
AcDbEntity
  8
Sichtbare_Kanten_TC_020513_DIN_
  6
Continuous
 62
     7
100
AcDbLine
 10
48.71902586944077
 20
98.43793284743509
 30
0.0
 11
42.71902586944077
 21
98.43793284743509
 31
0.0
  0
LINE
  5
D5
330
1F
100
AcDbEntity
  8
Sichtbare_Kanten_TC_020513_DIN_
  6
Continuous
 62
     7
100
AcDbLine
 10
162.7190258694411
 20
98.43793284743509
 30
0.0
 11
156.7190258694411
 21
98.43793284743509
 31
0.0
  0
LINE
  5
D6
330
1F
100
AcDbEntity
  8
Sichtbare_Kanten_TC_020513_DIN_
  6
Continuous
 62
     7
100
AcDbLine
 10
156.7190258694411
 20
97.43793284743509
 30
0.0
 11
162.7190258694411
 21
97.43793284743509
 31
0.0
  0
LINE
  5
D7
330
1F
100
AcDbEntity
  8
Sichtbare_Kanten_TC_020513_DIN_
  6
Continuous
 62
     7
100
AcDbLine
 10
42.71902586944077
 20
97.43793284743509
 30
0.0
 11
48.71902586944077
 21
97.43793284743509
 31
0.0
  0
LINE
  5
D8
330
1F
100
AcDbEntity
  8
Sichtbare_Kanten_TC_020513_DIN_
  6
Continuous
 62
     7
100
AcDbLine
 10
48.71902586944077
 20
95.93793284743509
 30
0.0
 11
42.71902586944077
 21
95.93793284743509
 31
0.0
  0
LINE
  5
D9
330
1F
100
AcDbEntity
  8
Sichtbare_Kanten_TC_020513_DIN_
  6
Continuous
 62
     7
100
AcDbLine
 10
162.7190258694411
 20
95.93793284743509
 30
0.0
 11
156.7190258694411
 21
95.93793284743509
 31
0.0
  0
LINE
  5
DA
330
1F
100
AcDbEntity
  8
Sichtbare_Kanten_TC_020513_DIN_
  6
Continuous
 62
     7
100
AcDbLine
 10
156.7190258694411
 20
94.93793284743509
 30
0.0
 11
162.7190258694411
 21
94.93793284743509
 31
0.0
  0
LINE
  5
DB
330
1F
100
AcDbEntity
  8
Sichtbare_Kanten_TC_020513_DIN_
  6
Continuous
 62
     7
100
AcDbLine
 10
42.71902586944077
 20
94.93793284743509
 30
0.0
 11
48.71902586944077
 21
94.93793284743509
 31
0.0
  0
LINE
  5
DC
330
1F
100
AcDbEntity
  8
Sichtbare_Kanten_TC_020513_DIN_
  6
Continuous
 62
     7
100
AcDbLine
 10
48.71902586944077
 20
93.43793284743509
 30
0.0
 11
42.71902586944077
 21
93.43793284743509
 31
0.0
  0
LINE
  5
DD
330
1F
100
AcDbEntity
  8
Sichtbare_Kanten_TC_020513_DIN_
  6
Continuous
 62
     7
100
AcDbLine
 10
162.7190258694411
 20
93.43793284743509
 30
0.0
 11
156.7190258694411
 21
93.43793284743509
 31
0.0
  0
LINE
  5
DE
330
1F
100
AcDbEntity
  8
Sichtbare_Kanten_TC_020513_DIN_
  6
Continuous
 62
     7
100
AcDbLine
 10
156.7190258694411
 20
92.43793284743509
 30
0.0
 11
162.7190258694411
 21
92.43793284743509
 31
0.0
  0
LINE
  5
DF
330
1F
100
AcDbEntity
  8
Sichtbare_Kanten_TC_020513_DIN_
  6
Continuous
 62
     7
100
AcDbLine
 10
42.71902586944077
 20
92.43793284743509
 30
0.0
 11
48.71902586944077
 21
92.43793284743509
 31
0.0
  0
LINE
  5
E0
330
1F
100
AcDbEntity
  8
Sichtbare_Kanten_TC_020513_DIN_
  6
Continuous
 62
     7
100
AcDbLine
 10
48.71902586944077
 20
90.93793284743509
 30
0.0
 11
42.71902586944077
 21
90.93793284743509
 31
0.0
  0
LINE
  5
E1
330
1F
100
AcDbEntity
  8
Sichtbare_Kanten_TC_020513_DIN_
  6
Continuous
 62
     7
100
AcDbLine
 10
162.7190258694411
 20
90.93793284743509
 30
0.0
 11
156.7190258694411
 21
90.93793284743509
 31
0.0
  0
LINE
  5
E2
330
1F
100
AcDbEntity
  8
Sichtbare_Kanten_TC_020513_DIN_
  6
Continuous
 62
     7
100
AcDbLine
 10
156.7190258694411
 20
89.93793284743509
 30
0.0
 11
162.7190258694411
 21
89.93793284743509
 31
0.0
  0
LINE
  5
E3
330
1F
100
AcDbEntity
  8
Sichtbare_Kanten_TC_020513_DIN_
  6
Continuous
 62
     7
100
AcDbLine
 10
42.71902586944077
 20
89.93793284743509
 30
0.0
 11
48.71902586944077
 21
89.93793284743509
 31
0.0
  0
LINE
  5
E4
330
1F
100
AcDbEntity
  8
Sichtbare_Kanten_TC_020513_DIN_
  6
Continuous
 62
     7
100
AcDbLine
 10
48.71902586944077
 20
88.43793284743509
 30
0.0
 11
42.71902586944077
 21
88.43793284743509
 31
0.0
  0
LINE
  5
E5
330
1F
100
AcDbEntity
  8
Sichtbare_Kanten_TC_020513_DIN_
  6
Continuous
 62
     7
100
AcDbLine
 10
162.7190258694411
 20
88.43793284743509
 30
0.0
 11
156.7190258694411
 21
88.43793284743509
 31
0.0
  0
LINE
  5
E6
330
1F
100
AcDbEntity
  8
Sichtbare_Kanten_TC_020513_DIN_
  6
Continuous
 62
     7
100
AcDbLine
 10
162.7190258694411
 20
76.18793284743509
 30
0.0
 11
156.7190258694411
 21
76.18793284743509
 31
0.0
  0
LINE
  5
E7
330
1F
100
AcDbEntity
  8
Sichtbare_Kanten_TC_020513_DIN_
  6
Continuous
 62
     7
100
AcDbLine
 10
48.71902586944077
 20
76.18793284743509
 30
0.0
 11
42.71902586944077
 21
76.18793284743509
 31
0.0
  0
LINE
  5
E8
330
1F
100
AcDbEntity
  8
Sichtbare_Kanten_TC_020513_DIN_
  6
Continuous
 62
     7
100
AcDbLine
 10
51.81050871451146
 20
150.1883488785704
 30
0.0
 11
42.84045438788951
 21
106.2822934903684
 31
0.0
  0
LINE
  5
E9
330
1F
100
AcDbEntity
  8
Sichtbare_Kanten_TC_020513_DIN_
  6
Continuous
 62
     7
100
AcDbLine
 10
162.5975973509922
 20
106.2822934903684
 30
0.0
 11
153.6275430243701
 21
150.1883488785704
 31
0.0
  0
LINE
  5
EA
330
1F
100
AcDbEntity
  8
Sichtbare_Kanten_TC_020513_DIN_
  6
Continuous
 62
     7
100
AcDbLine
 10
168.7190258694411
 20
79.18793284743509
 30
0.0
 11
168.7190258694411
 21
88.18793284743509
 31
0.0
  0
LINE
  5
EB
330
1F
100
AcDbEntity
  8
Sichtbare_Kanten_TC_020513_DIN_
  6
Continuous
 62
     7
100
AcDbLine
 10
163.2190258694411
 20
88.18793284743509
 30
0.0
 11
163.2190258694411
 21
79.18793284743509
 31
0.0
  0
LINE
  5
EC
330
1F
100
AcDbEntity
  8
Sichtbare_Kanten_TC_020513_DIN_
  6
Continuous
 62
     7
100
AcDbLine
 10
169.1190258694412
 20
87.63793284743508
 30
0.0
 11
169.1190258694412
 21
79.73793284743519
 31
0.0
  0
LINE
  5
ED
330
1F
100
AcDbEntity
  8
Sichtbare_Kanten_TC_020513_DIN_
  6
Continuous
 62
     7
100
AcDbLine
 10
170.2190258694411
 20
87.63793284743508
 30
0.0
 11
170.2190258694411
 21
79.73793284743519
 31
0.0
  0
LINE
  5
EE
330
1F
100
AcDbEntity
  8
Sichtbare_Kanten_TC_020513_DIN_
  6
Continuous
 62
     7
100
AcDbLine
 10
168.7190258694411
 20
79.18793284743509
 30
0.0
 11
163.2190258694411
 21
79.18793284743509
 31
0.0
  0
LINE
  5
EF
330
1F
100
AcDbEntity
  8
Sichtbare_Kanten_TC_020513_DIN_
  6
Continuous
 62
     7
100
AcDbLine
 10
168.7190258694411
 20
88.18793284743509
 30
0.0
 11
163.2190258694411
 21
88.18793284743509
 31
0.0
  0
LINE
  5
F0
330
1F
100
AcDbEntity
  8
Sichtbare_Kanten_TC_020513_DIN_
  6
Continuous
 62
     7
100
AcDbLine
 10
169.1190258694412
 20
81.18793284743519
 30
0.0
 11
168.7190258694411
 21
81.18793284743519
 31
0.0
  0
LINE
  5
F1
330
1F
100
AcDbEntity
  8
Sichtbare_Kanten_TC_020513_DIN_
  6
Continuous
 62
     7
100
AcDbLine
 10
169.1190258694412
 20
86.18793284743509
 30
0.0
 11
168.7190258694411
 21
86.18793284743509
 31
0.0
  0
LINE
  5
F2
330
1F
100
AcDbEntity
  8
Sichtbare_Kanten_TC_020513_DIN_
  6
Continuous
 62
     7
100
AcDbLine
 10
163.2190258694411
 20
81.18793284743519
 30
0.0
 11
162.7190258694411
 21
81.18793284743519
 31
0.0
  0
LINE
  5
F3
330
1F
100
AcDbEntity
  8
Sichtbare_Kanten_TC_020513_DIN_
  6
Continuous
 62
     7
100
AcDbLine
 10
163.2190258694411
 20
86.18793284743509
 30
0.0
 11
162.7190258694411
 21
86.18793284743509
 31
0.0
  0
LINE
  5
F4
330
1F
100
AcDbEntity
  8
Sichtbare_Kanten_TC_020513_DIN_
  6
Continuous
 62
     7
100
AcDbLine
 10
36.71902586944071
 20
79.18793284743509
 30
0.0
 11
36.71902586944071
 21
88.18793284743509
 31
0.0
  0
LINE
  5
F5
330
1F
100
AcDbEntity
  8
Sichtbare_Kanten_TC_020513_DIN_
  6
Continuous
 62
     7
100
AcDbLine
 10
42.21902586944077
 20
88.18793284743509
 30
0.0
 11
42.21902586944077
 21
79.18793284743509
 31
0.0
  0
LINE
  5
F6
330
1F
100
AcDbEntity
  8
Sichtbare_Kanten_TC_020513_DIN_
  6
Continuous
 62
     7
100
AcDbLine
 10
42.21902586944077
 20
79.18793284743509
 30
0.0
 11
36.71902586944071
 21
79.18793284743509
 31
0.0
  0
LINE
  5
F7
330
1F
100
AcDbEntity
  8
Sichtbare_Kanten_TC_020513_DIN_
  6
Continuous
 62
     7
100
AcDbLine
 10
42.21902586944077
 20
88.18793284743509
 30
0.0
 11
36.71902586944071
 21
88.18793284743509
 31
0.0
  0
LINE
  5
F8
330
1F
100
AcDbEntity
  8
Sichtbare_Kanten_TC_020513_DIN_
  6
Continuous
 62
     7
100
AcDbLine
 10
36.31902586944074
 20
87.63793284743508
 30
0.0
 11
36.31902586944074
 21
79.73793284743519
 31
0.0
  0
LINE
  5
F9
330
1F
100
AcDbEntity
  8
Sichtbare_Kanten_TC_020513_DIN_
  6
Continuous
 62
     7
100
AcDbLine
 10
35.21902586944071
 20
87.63793284743508
 30
0.0
 11
35.21902586944071
 21
79.73793284743519
 31
0.0
  0
LINE
  5
FA
330
1F
100
AcDbEntity
  8
Sichtbare_Kanten_TC_020513_DIN_
  6
Continuous
 62
     7
100
AcDbLine
 10
36.71902586944071
 20
81.18793284743519
 30
0.0
 11
36.31902586944074
 21
81.18793284743519
 31
0.0
  0
LINE
  5
FB
330
1F
100
AcDbEntity
  8
Sichtbare_Kanten_TC_020513_DIN_
  6
Continuous
 62
     7
100
AcDbLine
 10
36.71902586944071
 20
86.18793284743509
 30
0.0
 11
36.31902586944074
 21
86.18793284743509
 31
0.0
  0
LINE
  5
FC
330
1F
100
AcDbEntity
  8
Sichtbare_Kanten_TC_020513_DIN_
  6
Continuous
 62
     7
100
AcDbLine
 10
42.71902586944077
 20
81.18793284743519
 30
0.0
 11
42.21902586944077
 21
81.18793284743519
 31
0.0
  0
LINE
  5
FD
330
1F
100
AcDbEntity
  8
Sichtbare_Kanten_TC_020513_DIN_
  6
Continuous
 62
     7
100
AcDbLine
 10
42.71902586944077
 20
86.18793284743509
 30
0.0
 11
42.21902586944077
 21
86.18793284743509
 31
0.0
  0
LINE
  5
FE
330
1F
100
AcDbEntity
  8
Sichtbare_Kanten_TC_020513_DIN_
  6
Continuous
 62
     7
100
AcDbLine
 10
42.71902586944077
 20
89.93793284743509
 30
0.0
 11
42.71902586944077
 21
88.43793284743509
 31
0.0
  0
LINE
  5
FF
330
1F
100
AcDbEntity
  8
Sichtbare_Kanten_TC_020513_DIN_
  6
Continuous
 62
     7
100
AcDbLine
 10
42.71902586944077
 20
92.43793284743509
 30
0.0
 11
42.71902586944077
 21
90.93793284743509
 31
0.0
  0
LINE
  5
100
330
1F
100
AcDbEntity
  8
Sichtbare_Kanten_TC_020513_DIN_
  6
Continuous
 62
     7
100
AcDbLine
 10
42.71902586944077
 20
94.93793284743509
 30
0.0
 11
42.71902586944077
 21
93.43793284743509
 31
0.0
  0
LINE
  5
101
330
1F
100
AcDbEntity
  8
Sichtbare_Kanten_TC_020513_DIN_
  6
Continuous
 62
     7
100
AcDbLine
 10
42.71902586944077
 20
97.43793284743509
 30
0.0
 11
42.71902586944077
 21
95.93793284743509
 31
0.0
  0
LINE
  5
102
330
1F
100
AcDbEntity
  8
Sichtbare_Kanten_TC_020513_DIN_
  6
Continuous
 62
     7
100
AcDbLine
 10
42.71902586944077
 20
99.93793284743509
 30
0.0
 11
42.71902586944077
 21
98.43793284743509
 31
0.0
  0
LINE
  5
103
330
1F
100
AcDbEntity
  8
Sichtbare_Kanten_TC_020513_DIN_
  6
Continuous
 62
     7
100
AcDbLine
 10
42.71902586944077
 20
102.4379328474354
 30
0.0
 11
42.71902586944077
 21
100.9379328474351
 31
0.0
  0
LINE
  5
104
330
1F
100
AcDbEntity
  8
Sichtbare_Kanten_TC_020513_DIN_
  6
Continuous
 62
     7
100
AcDbLine
 10
162.7190258694411
 20
100.9379328474351
 30
0.0
 11
162.7190258694411
 21
102.4379328474354
 31
0.0
  0
LINE
  5
105
330
1F
100
AcDbEntity
  8
Sichtbare_Kanten_TC_020513_DIN_
  6
Continuous
 62
     7
100
AcDbLine
 10
162.7190258694411
 20
98.43793284743509
 30
0.0
 11
162.7190258694411
 21
99.93793284743509
 31
0.0
  0
LINE
  5
106
330
1F
100
AcDbEntity
  8
Sichtbare_Kanten_TC_020513_DIN_
  6
Continuous
 62
     7
100
AcDbLine
 10
162.7190258694411
 20
95.93793284743509
 30
0.0
 11
162.7190258694411
 21
97.43793284743509
 31
0.0
  0
LINE
  5
107
330
1F
100
AcDbEntity
  8
Sichtbare_Kanten_TC_020513_DIN_
  6
Continuous
 62
     7
100
AcDbLine
 10
162.7190258694411
 20
93.43793284743509
 30
0.0
 11
162.7190258694411
 21
94.93793284743509
 31
0.0
  0
LINE
  5
108
330
1F
100
AcDbEntity
  8
Sichtbare_Kanten_TC_020513_DIN_
  6
Continuous
 62
     7
100
AcDbLine
 10
162.7190258694411
 20
90.93793284743509
 30
0.0
 11
162.7190258694411
 21
92.43793284743509
 31
0.0
  0
LINE
  5
109
330
1F
100
AcDbEntity
  8
Sichtbare_Kanten_TC_020513_DIN_
  6
Continuous
 62
     7
100
AcDbLine
 10
162.7190258694411
 20
88.43793284743509
 30
0.0
 11
162.7190258694411
 21
89.93793284743509
 31
0.0
  0
LINE
  5
10A
330
1F
100
AcDbEntity
  8
Sichtbare_Kanten_TC_020513_DIN_
  6
Continuous
 62
     7
100
AcDbLine
 10
48.71902586944077
 20
100.9379328474351
 30
0.0
 11
156.7190258694411
 21
100.9379328474351
 31
0.0
  0
LINE
  5
10B
330
1F
100
AcDbEntity
  8
Sichtbare_Kanten_TC_020513_DIN_
  6
Continuous
 62
     7
100
AcDbLine
 10
156.7190258694411
 20
99.93793284743509
 30
0.0
 11
48.71902586944077
 21
99.93793284743509
 31
0.0
  0
LINE
  5
10C
330
1F
100
AcDbEntity
  8
Sichtbare_Kanten_TC_020513_DIN_
  6
Continuous
 62
     7
100
AcDbLine
 10
156.7190258694411
 20
102.4379328474354
 30
0.0
 11
48.71902586944077
 21
102.4379328474354
 31
0.0
  0
LINE
  5
10D
330
1F
100
AcDbEntity
  8
Sichtbare_Kanten_TC_020513_DIN_
  6
Continuous
 62
     7
100
AcDbLine
 10
48.71902586944077
 20
98.43793284743509
 30
0.0
 11
156.7190258694411
 21
98.43793284743509
 31
0.0
  0
LINE
  5
10E
330
1F
100
AcDbEntity
  8
Sichtbare_Kanten_TC_020513_DIN_
  6
Continuous
 62
     7
100
AcDbLine
 10
156.7190258694411
 20
97.43793284743509
 30
0.0
 11
48.71902586944077
 21
97.43793284743509
 31
0.0
  0
LINE
  5
10F
330
1F
100
AcDbEntity
  8
Sichtbare_Kanten_TC_020513_DIN_
  6
Continuous
 62
     7
100
AcDbLine
 10
48.71902586944077
 20
95.93793284743509
 30
0.0
 11
156.7190258694411
 21
95.93793284743509
 31
0.0
  0
LINE
  5
110
330
1F
100
AcDbEntity
  8
Sichtbare_Kanten_TC_020513_DIN_
  6
Continuous
 62
     7
100
AcDbLine
 10
156.7190258694411
 20
94.93793284743509
 30
0.0
 11
48.71902586944077
 21
94.93793284743509
 31
0.0
  0
LINE
  5
111
330
1F
100
AcDbEntity
  8
Sichtbare_Kanten_TC_020513_DIN_
  6
Continuous
 62
     7
100
AcDbLine
 10
48.71902586944077
 20
93.43793284743509
 30
0.0
 11
156.7190258694411
 21
93.43793284743509
 31
0.0
  0
LINE
  5
112
330
1F
100
AcDbEntity
  8
Sichtbare_Kanten_TC_020513_DIN_
  6
Continuous
 62
     7
100
AcDbLine
 10
156.7190258694411
 20
92.43793284743509
 30
0.0
 11
48.71902586944077
 21
92.43793284743509
 31
0.0
  0
LINE
  5
113
330
1F
100
AcDbEntity
  8
Sichtbare_Kanten_TC_020513_DIN_
  6
Continuous
 62
     7
100
AcDbLine
 10
48.71902586944077
 20
90.93793284743509
 30
0.0
 11
156.7190258694411
 21
90.93793284743509
 31
0.0
  0
LINE
  5
114
330
1F
100
AcDbEntity
  8
Sichtbare_Kanten_TC_020513_DIN_
  6
Continuous
 62
     7
100
AcDbLine
 10
156.7190258694411
 20
89.93793284743509
 30
0.0
 11
48.71902586944077
 21
89.93793284743509
 31
0.0
  0
LINE
  5
115
330
1F
100
AcDbEntity
  8
Sichtbare_Kanten_TC_020513_DIN_
  6
Continuous
 62
     7
100
AcDbLine
 10
48.71902586944077
 20
88.43793284743509
 30
0.0
 11
156.7190258694411
 21
88.43793284743509
 31
0.0
  0
LINE
  5
116
330
1F
100
AcDbEntity
  8
Sichtbare_Kanten_TC_020513_DIN_
  6
Continuous
 62
     7
100
AcDbLine
 10
156.7190258694411
 20
76.18793284743509
 30
0.0
 11
48.71902586944077
 21
76.18793284743509
 31
0.0
  0
LINE
  5
117
330
1F
100
AcDbEntity
  8
Sichtbare_Kanten_TC_020513_DIN_
  6
Continuous
 62
     7
100
AcDbLine
 10
42.71902586944077
 20
100.9379328474351
 30
0.0
 11
43.41902586944076
 21
101.6379328474354
 31
0.0
  0
LINE
  5
118
330
1F
100
AcDbEntity
  8
Sichtbare_Kanten_TC_020513_DIN_
  6
Continuous
 62
     7
100
AcDbLine
 10
43.41902586944076
 20
101.6379328474354
 30
0.0
 11
48.71902586944077
 21
101.6379328474354
 31
0.0
  0
LINE
  5
119
330
1F
100
AcDbEntity
  8
Sichtbare_Kanten_TC_020513_DIN_
  6
Continuous
 62
     7
100
AcDbLine
 10
156.7190258694411
 20
101.6379328474354
 30
0.0
 11
48.71902586944077
 21
101.6379328474354
 31
0.0
  0
LINE
  5
11A
330
1F
100
AcDbEntity
  8
Sichtbare_Kanten_TC_020513_DIN_
  6
Continuous
 62
     7
100
AcDbLine
 10
162.7190258694411
 20
100.9379328474351
 30
0.0
 11
162.0190258694412
 21
101.6379328474354
 31
0.0
  0
LINE
  5
11B
330
1F
100
AcDbEntity
  8
Sichtbare_Kanten_TC_020513_DIN_
  6
Continuous
 62
     7
100
AcDbLine
 10
156.7190258694411
 20
101.6379328474354
 30
0.0
 11
162.0190258694412
 21
101.6379328474354
 31
0.0
  0
LINE
  5
11C
330
1F
100
AcDbEntity
  8
Sichtbare_Kanten_TC_020513_DIN_
  6
Continuous
 62
     7
100
AcDbLine
 10
48.71902586944077
 20
101.7379328474354
 30
0.0
 11
156.7190258694411
 21
101.7379328474354
 31
0.0
  0
LINE
  5
11D
330
1F
100
AcDbEntity
  8
Sichtbare_Kanten_TC_020513_DIN_
  6
Continuous
 62
     7
100
AcDbLine
 10
42.71902586944077
 20
102.4379328474354
 30
0.0
 11
43.41902586944076
 21
101.7379328474354
 31
0.0
  0
LINE
  5
11E
330
1F
100
AcDbEntity
  8
Sichtbare_Kanten_TC_020513_DIN_
  6
Continuous
 62
     7
100
AcDbLine
 10
48.71902586944077
 20
101.7379328474354
 30
0.0
 11
43.41902586944076
 21
101.7379328474354
 31
0.0
  0
LINE
  5
11F
330
1F
100
AcDbEntity
  8
Sichtbare_Kanten_TC_020513_DIN_
  6
Continuous
 62
     7
100
AcDbLine
 10
162.0190258694412
 20
101.7379328474354
 30
0.0
 11
156.7190258694411
 21
101.7379328474354
 31
0.0
  0
LINE
  5
120
330
1F
100
AcDbEntity
  8
Sichtbare_Kanten_TC_020513_DIN_
  6
Continuous
 62
     7
100
AcDbLine
 10
162.0190258694412
 20
101.7379328474354
 30
0.0
 11
162.7190258694411
 21
102.4379328474354
 31
0.0
  0
LINE
  5
121
330
1F
100
AcDbEntity
  8
Sichtbare_Kanten_TC_020513_DIN_
  6
Continuous
 62
     7
100
AcDbLine
 10
42.71902586944077
 20
98.43793284743509
 30
0.0
 11
43.41902586944076
 21
99.13793284743508
 31
0.0
  0
LINE
  5
122
330
1F
100
AcDbEntity
  8
Sichtbare_Kanten_TC_020513_DIN_
  6
Continuous
 62
     7
100
AcDbLine
 10
43.41902586944076
 20
99.13793284743508
 30
0.0
 11
48.71902586944077
 21
99.13793284743508
 31
0.0
  0
LINE
  5
123
330
1F
100
AcDbEntity
  8
Sichtbare_Kanten_TC_020513_DIN_
  6
Continuous
 62
     7
100
AcDbLine
 10
156.7190258694411
 20
99.13793284743508
 30
0.0
 11
48.71902586944077
 21
99.13793284743508
 31
0.0
  0
LINE
  5
124
330
1F
100
AcDbEntity
  8
Sichtbare_Kanten_TC_020513_DIN_
  6
Continuous
 62
     7
100
AcDbLine
 10
162.7190258694411
 20
98.43793284743509
 30
0.0
 11
162.0190258694412
 21
99.13793284743508
 31
0.0
  0
LINE
  5
125
330
1F
100
AcDbEntity
  8
Sichtbare_Kanten_TC_020513_DIN_
  6
Continuous
 62
     7
100
AcDbLine
 10
156.7190258694411
 20
99.13793284743508
 30
0.0
 11
162.0190258694412
 21
99.13793284743508
 31
0.0
  0
LINE
  5
126
330
1F
100
AcDbEntity
  8
Sichtbare_Kanten_TC_020513_DIN_
  6
Continuous
 62
     7
100
AcDbLine
 10
48.71902586944077
 20
99.23793284743509
 30
0.0
 11
156.7190258694411
 21
99.23793284743509
 31
0.0
  0
LINE
  5
127
330
1F
100
AcDbEntity
  8
Sichtbare_Kanten_TC_020513_DIN_
  6
Continuous
 62
     7
100
AcDbLine
 10
42.71902586944077
 20
99.93793284743509
 30
0.0
 11
43.41902586944076
 21
99.23793284743509
 31
0.0
  0
LINE
  5
128
330
1F
100
AcDbEntity
  8
Sichtbare_Kanten_TC_020513_DIN_
  6
Continuous
 62
     7
100
AcDbLine
 10
48.71902586944077
 20
99.23793284743509
 30
0.0
 11
43.41902586944076
 21
99.23793284743509
 31
0.0
  0
LINE
  5
129
330
1F
100
AcDbEntity
  8
Sichtbare_Kanten_TC_020513_DIN_
  6
Continuous
 62
     7
100
AcDbLine
 10
162.0190258694412
 20
99.23793284743509
 30
0.0
 11
156.7190258694411
 21
99.23793284743509
 31
0.0
  0
LINE
  5
12A
330
1F
100
AcDbEntity
  8
Sichtbare_Kanten_TC_020513_DIN_
  6
Continuous
 62
     7
100
AcDbLine
 10
162.0190258694412
 20
99.23793284743509
 30
0.0
 11
162.7190258694411
 21
99.93793284743509
 31
0.0
  0
LINE
  5
12B
330
1F
100
AcDbEntity
  8
Sichtbare_Kanten_TC_020513_DIN_
  6
Continuous
 62
     7
100
AcDbLine
 10
42.71902586944077
 20
95.93793284743509
 30
0.0
 11
43.41902586944076
 21
96.63793284743508
 31
0.0
  0
LINE
  5
12C
330
1F
100
AcDbEntity
  8
Sichtbare_Kanten_TC_020513_DIN_
  6
Continuous
 62
     7
100
AcDbLine
 10
43.41902586944076
 20
96.63793284743508
 30
0.0
 11
48.71902586944077
 21
96.63793284743508
 31
0.0
  0
LINE
  5
12D
330
1F
100
AcDbEntity
  8
Sichtbare_Kanten_TC_020513_DIN_
  6
Continuous
 62
     7
100
AcDbLine
 10
156.7190258694411
 20
96.63793284743508
 30
0.0
 11
48.71902586944077
 21
96.63793284743508
 31
0.0
  0
LINE
  5
12E
330
1F
100
AcDbEntity
  8
Sichtbare_Kanten_TC_020513_DIN_
  6
Continuous
 62
     7
100
AcDbLine
 10
162.7190258694411
 20
95.93793284743509
 30
0.0
 11
162.0190258694412
 21
96.63793284743508
 31
0.0
  0
LINE
  5
12F
330
1F
100
AcDbEntity
  8
Sichtbare_Kanten_TC_020513_DIN_
  6
Continuous
 62
     7
100
AcDbLine
 10
156.7190258694411
 20
96.63793284743508
 30
0.0
 11
162.0190258694412
 21
96.63793284743508
 31
0.0
  0
LINE
  5
130
330
1F
100
AcDbEntity
  8
Sichtbare_Kanten_TC_020513_DIN_
  6
Continuous
 62
     7
100
AcDbLine
 10
48.71902586944077
 20
96.73793284743509
 30
0.0
 11
156.7190258694411
 21
96.73793284743509
 31
0.0
  0
LINE
  5
131
330
1F
100
AcDbEntity
  8
Sichtbare_Kanten_TC_020513_DIN_
  6
Continuous
 62
     7
100
AcDbLine
 10
42.71902586944077
 20
97.43793284743509
 30
0.0
 11
43.41902586944076
 21
96.73793284743509
 31
0.0
  0
LINE
  5
132
330
1F
100
AcDbEntity
  8
Sichtbare_Kanten_TC_020513_DIN_
  6
Continuous
 62
     7
100
AcDbLine
 10
48.71902586944077
 20
96.73793284743509
 30
0.0
 11
43.41902586944076
 21
96.73793284743509
 31
0.0
  0
LINE
  5
133
330
1F
100
AcDbEntity
  8
Sichtbare_Kanten_TC_020513_DIN_
  6
Continuous
 62
     7
100
AcDbLine
 10
162.0190258694412
 20
96.73793284743509
 30
0.0
 11
156.7190258694411
 21
96.73793284743509
 31
0.0
  0
LINE
  5
134
330
1F
100
AcDbEntity
  8
Sichtbare_Kanten_TC_020513_DIN_
  6
Continuous
 62
     7
100
AcDbLine
 10
162.0190258694412
 20
96.73793284743509
 30
0.0
 11
162.7190258694411
 21
97.43793284743509
 31
0.0
  0
LINE
  5
135
330
1F
100
AcDbEntity
  8
Sichtbare_Kanten_TC_020513_DIN_
  6
Continuous
 62
     7
100
AcDbLine
 10
42.71902586944077
 20
93.43793284743509
 30
0.0
 11
43.41902586944076
 21
94.13793284743508
 31
0.0
  0
LINE
  5
136
330
1F
100
AcDbEntity
  8
Sichtbare_Kanten_TC_020513_DIN_
  6
Continuous
 62
     7
100
AcDbLine
 10
43.41902586944076
 20
94.13793284743508
 30
0.0
 11
48.71902586944077
 21
94.13793284743508
 31
0.0
  0
LINE
  5
137
330
1F
100
AcDbEntity
  8
Sichtbare_Kanten_TC_020513_DIN_
  6
Continuous
 62
     7
100
AcDbLine
 10
156.7190258694411
 20
94.13793284743508
 30
0.0
 11
48.71902586944077
 21
94.13793284743508
 31
0.0
  0
LINE
  5
138
330
1F
100
AcDbEntity
  8
Sichtbare_Kanten_TC_020513_DIN_
  6
Continuous
 62
     7
100
AcDbLine
 10
162.7190258694411
 20
93.43793284743509
 30
0.0
 11
162.0190258694412
 21
94.13793284743508
 31
0.0
  0
LINE
  5
139
330
1F
100
AcDbEntity
  8
Sichtbare_Kanten_TC_020513_DIN_
  6
Continuous
 62
     7
100
AcDbLine
 10
156.7190258694411
 20
94.13793284743508
 30
0.0
 11
162.0190258694412
 21
94.13793284743508
 31
0.0
  0
LINE
  5
13A
330
1F
100
AcDbEntity
  8
Sichtbare_Kanten_TC_020513_DIN_
  6
Continuous
 62
     7
100
AcDbLine
 10
48.71902586944077
 20
94.23793284743509
 30
0.0
 11
156.7190258694411
 21
94.23793284743509
 31
0.0
  0
LINE
  5
13B
330
1F
100
AcDbEntity
  8
Sichtbare_Kanten_TC_020513_DIN_
  6
Continuous
 62
     7
100
AcDbLine
 10
42.71902586944077
 20
94.93793284743509
 30
0.0
 11
43.41902586944076
 21
94.23793284743509
 31
0.0
  0
LINE
  5
13C
330
1F
100
AcDbEntity
  8
Sichtbare_Kanten_TC_020513_DIN_
  6
Continuous
 62
     7
100
AcDbLine
 10
48.71902586944077
 20
94.23793284743509
 30
0.0
 11
43.41902586944076
 21
94.23793284743509
 31
0.0
  0
LINE
  5
13D
330
1F
100
AcDbEntity
  8
Sichtbare_Kanten_TC_020513_DIN_
  6
Continuous
 62
     7
100
AcDbLine
 10
162.0190258694412
 20
94.23793284743509
 30
0.0
 11
156.7190258694411
 21
94.23793284743509
 31
0.0
  0
LINE
  5
13E
330
1F
100
AcDbEntity
  8
Sichtbare_Kanten_TC_020513_DIN_
  6
Continuous
 62
     7
100
AcDbLine
 10
162.0190258694412
 20
94.23793284743509
 30
0.0
 11
162.7190258694411
 21
94.93793284743509
 31
0.0
  0
LINE
  5
13F
330
1F
100
AcDbEntity
  8
Sichtbare_Kanten_TC_020513_DIN_
  6
Continuous
 62
     7
100
AcDbLine
 10
42.71902586944077
 20
90.93793284743509
 30
0.0
 11
43.41902586944076
 21
91.63793284743508
 31
0.0
  0
LINE
  5
140
330
1F
100
AcDbEntity
  8
Sichtbare_Kanten_TC_020513_DIN_
  6
Continuous
 62
     7
100
AcDbLine
 10
43.41902586944076
 20
91.63793284743508
 30
0.0
 11
48.71902586944077
 21
91.63793284743508
 31
0.0
  0
LINE
  5
141
330
1F
100
AcDbEntity
  8
Sichtbare_Kanten_TC_020513_DIN_
  6
Continuous
 62
     7
100
AcDbLine
 10
156.7190258694411
 20
91.63793284743508
 30
0.0
 11
48.71902586944077
 21
91.63793284743508
 31
0.0
  0
LINE
  5
142
330
1F
100
AcDbEntity
  8
Sichtbare_Kanten_TC_020513_DIN_
  6
Continuous
 62
     7
100
AcDbLine
 10
162.7190258694411
 20
90.93793284743509
 30
0.0
 11
162.0190258694412
 21
91.63793284743508
 31
0.0
  0
LINE
  5
143
330
1F
100
AcDbEntity
  8
Sichtbare_Kanten_TC_020513_DIN_
  6
Continuous
 62
     7
100
AcDbLine
 10
156.7190258694411
 20
91.63793284743508
 30
0.0
 11
162.0190258694412
 21
91.63793284743508
 31
0.0
  0
LINE
  5
144
330
1F
100
AcDbEntity
  8
Sichtbare_Kanten_TC_020513_DIN_
  6
Continuous
 62
     7
100
AcDbLine
 10
48.71902586944077
 20
91.73793284743509
 30
0.0
 11
156.7190258694411
 21
91.73793284743509
 31
0.0
  0
LINE
  5
145
330
1F
100
AcDbEntity
  8
Sichtbare_Kanten_TC_020513_DIN_
  6
Continuous
 62
     7
100
AcDbLine
 10
42.71902586944077
 20
92.43793284743509
 30
0.0
 11
43.41902586944076
 21
91.73793284743509
 31
0.0
  0
LINE
  5
146
330
1F
100
AcDbEntity
  8
Sichtbare_Kanten_TC_020513_DIN_
  6
Continuous
 62
     7
100
AcDbLine
 10
48.71902586944077
 20
91.73793284743509
 30
0.0
 11
43.41902586944076
 21
91.73793284743509
 31
0.0
  0
LINE
  5
147
330
1F
100
AcDbEntity
  8
Sichtbare_Kanten_TC_020513_DIN_
  6
Continuous
 62
     7
100
AcDbLine
 10
162.0190258694412
 20
91.73793284743509
 30
0.0
 11
156.7190258694411
 21
91.73793284743509
 31
0.0
  0
LINE
  5
148
330
1F
100
AcDbEntity
  8
Sichtbare_Kanten_TC_020513_DIN_
  6
Continuous
 62
     7
100
AcDbLine
 10
162.0190258694412
 20
91.73793284743509
 30
0.0
 11
162.7190258694411
 21
92.43793284743509
 31
0.0
  0
LINE
  5
149
330
1F
100
AcDbEntity
  8
Sichtbare_Kanten_TC_020513_DIN_
  6
Continuous
 62
     7
100
AcDbLine
 10
162.0190258694412
 20
101.6379328474354
 30
0.0
 11
162.0190258694412
 21
101.7379328474354
 31
0.0
  0
LINE
  5
14A
330
1F
100
AcDbEntity
  8
Sichtbare_Kanten_TC_020513_DIN_
  6
Continuous
 62
     7
100
AcDbLine
 10
43.41902586944076
 20
101.6379328474354
 30
0.0
 11
43.41902586944076
 21
101.7379328474354
 31
0.0
  0
LINE
  5
14B
330
1F
100
AcDbEntity
  8
Sichtbare_Kanten_TC_020513_DIN_
  6
Continuous
 62
     7
100
AcDbLine
 10
162.0190258694412
 20
99.13793284743508
 30
0.0
 11
162.0190258694412
 21
99.23793284743509
 31
0.0
  0
LINE
  5
14C
330
1F
100
AcDbEntity
  8
Sichtbare_Kanten_TC_020513_DIN_
  6
Continuous
 62
     7
100
AcDbLine
 10
43.41902586944076
 20
99.13793284743508
 30
0.0
 11
43.41902586944076
 21
99.23793284743509
 31
0.0
  0
LINE
  5
14D
330
1F
100
AcDbEntity
  8
Sichtbare_Kanten_TC_020513_DIN_
  6
Continuous
 62
     7
100
AcDbLine
 10
162.0190258694412
 20
96.63793284743508
 30
0.0
 11
162.0190258694412
 21
96.73793284743509
 31
0.0
  0
LINE
  5
14E
330
1F
100
AcDbEntity
  8
Sichtbare_Kanten_TC_020513_DIN_
  6
Continuous
 62
     7
100
AcDbLine
 10
43.41902586944076
 20
96.63793284743508
 30
0.0
 11
43.41902586944076
 21
96.73793284743509
 31
0.0
  0
LINE
  5
14F
330
1F
100
AcDbEntity
  8
Sichtbare_Kanten_TC_020513_DIN_
  6
Continuous
 62
     7
100
AcDbLine
 10
162.0190258694412
 20
94.13793284743508
 30
0.0
 11
162.0190258694412
 21
94.23793284743509
 31
0.0
  0
LINE
  5
150
330
1F
100
AcDbEntity
  8
Sichtbare_Kanten_TC_020513_DIN_
  6
Continuous
 62
     7
100
AcDbLine
 10
43.41902586944076
 20
94.13793284743508
 30
0.0
 11
43.41902586944076
 21
94.23793284743509
 31
0.0
  0
LINE
  5
151
330
1F
100
AcDbEntity
  8
Sichtbare_Kanten_TC_020513_DIN_
  6
Continuous
 62
     7
100
AcDbLine
 10
162.0190258694412
 20
91.63793284743508
 30
0.0
 11
162.0190258694412
 21
91.73793284743509
 31
0.0
  0
LINE
  5
152
330
1F
100
AcDbEntity
  8
Sichtbare_Kanten_TC_020513_DIN_
  6
Continuous
 62
     7
100
AcDbLine
 10
43.41902586944076
 20
91.63793284743508
 30
0.0
 11
43.41902586944076
 21
91.73793284743509
 31
0.0
  0
LINE
  5
153
330
1F
100
AcDbEntity
  8
Sichtbare_Kanten_TC_020513_DIN_
  6
Continuous
 62
     7
100
AcDbLine
 10
155.0628310435911
 20
113.1879328474354
 30
0.0
 11
50.37522069529075
 21
113.1879328474354
 31
0.0
  0
LINE
  5
154
330
1F
100
AcDbEntity
  8
Sichtbare_Kanten_TC_020513_DIN_
  6
Continuous
 62
     7
100
AcDbLine
 10
105.7190258694408
 20
125.3379328474354
 30
0.0
 11
104.9690258694408
 21
125.3379328474354
 31
0.0
  0
LINE
  5
155
330
1F
100
AcDbEntity
  8
Sichtbare_Kanten_TC_020513_DIN_
  6
Continuous
 62
     7
100
AcDbLine
 10
104.9690258694408
 20
125.3379328474354
 30
0.0
 11
104.9690258694408
 21
124.4643558474694
 31
0.0
  0
LINE
  5
156
330
1F
100
AcDbEntity
  8
Sichtbare_Kanten_TC_020513_DIN_
  6
Continuous
 62
     7
100
AcDbLine
 10
104.9690258694408
 20
124.4643558474694
 30
0.0
 11
105.5941369219484
 21
124.8248365544154
 31
0.0
  0
LINE
  5
157
330
1F
100
AcDbEntity
  8
Sichtbare_Kanten_TC_020513_DIN_
  6
Continuous
 62
     7
100
AcDbLine
 10
105.8439148169333
 20
124.3916956960594
 30
0.0
 11
104.8439148169333
 21
123.8150290293934
 31
0.0
  0
LINE
  5
158
330
1F
100
AcDbEntity
  8
Sichtbare_Kanten_TC_020513_DIN_
  6
Continuous
 62
     7
100
AcDbLine
 10
104.4690258694408
 20
124.0315994585704
 30
0.0
 11
104.4690258694408
 21
127.1442662362994
 31
0.0
  0
LINE
  5
159
330
1F
100
AcDbEntity
  8
Sichtbare_Kanten_TC_020513_DIN_
  6
Continuous
 62
     7
100
AcDbLine
 10
104.9690258694408
 20
125.8379328474354
 30
0.0
 11
105.7190258694408
 21
125.8379328474354
 31
0.0
  0
LINE
  5
15A
330
1F
100
AcDbEntity
  8
Sichtbare_Kanten_TC_020513_DIN_
  6
Continuous
 62
     7
100
AcDbLine
 10
104.9690258694408
 20
126.7115098474014
 30
0.0
 11
104.9690258694408
 21
125.8379328474354
 31
0.0
  0
LINE
  5
15B
330
1F
100
AcDbEntity
  8
Sichtbare_Kanten_TC_020513_DIN_
  6
Continuous
 62
     7
100
AcDbLine
 10
105.5941369219484
 20
126.3510291404554
 30
0.0
 11
104.9690258694408
 21
126.7115098474014
 31
0.0
  0
LINE
  5
15C
330
1F
100
AcDbEntity
  8
Sichtbare_Kanten_TC_020513_DIN_
  6
Continuous
 62
     7
100
AcDbLine
 10
104.8439148169333
 20
127.3608366654774
 30
0.0
 11
105.8439148169333
 21
126.7841699988104
 31
0.0
  0
LINE
  5
15D
330
1F
100
AcDbEntity
  8
Sichtbare_Kanten_TC_020513_DIN_
  6
Continuous
 62
     7
100
AcDbLine
 10
99.96902586944077
 20
126.5779328474354
 30
0.0
 11
99.96902586944077
 21
124.5979328474354
 31
0.0
  0
LINE
  5
15E
330
1F
100
AcDbEntity
  8
Sichtbare_Kanten_TC_020513_DIN_
  6
Continuous
 62
     7
100
AcDbLine
 10
99.46902586944077
 20
124.5979328474354
 30
0.0
 11
99.46902586944077
 21
126.5779328474354
 31
0.0
  0
LINE
  5
15F
330
1F
100
AcDbEntity
  8
Sichtbare_Kanten_TC_020513_DIN_
  6
Continuous
 62
     7
100
AcDbLine
 10
108.7190258694411
 20
125.5879328474354
 30
0.0
 11
102.7190258694408
 21
129.0479328474354
 31
0.0
  0
LINE
  5
160
330
1F
100
AcDbEntity
  8
Sichtbare_Kanten_TC_020513_DIN_
  6
Continuous
 62
     7
100
AcDbLine
 10
102.7190258694408
 20
129.0479328474354
 30
0.0
 11
96.71902586944077
 21
125.5879328474354
 31
0.0
  0
LINE
  5
161
330
1F
100
AcDbEntity
  8
Sichtbare_Kanten_TC_020513_DIN_
  6
Continuous
 62
     7
100
AcDbLine
 10
102.7190258694408
 20
129.3365225696664
 30
0.0
 11
109.2194704744671
 21
125.5879328474354
 31
0.0
  0
LINE
  5
162
330
1F
100
AcDbEntity
  8
Sichtbare_Kanten_TC_020513_DIN_
  6
Continuous
 62
     7
100
AcDbLine
 10
109.2194704744671
 20
125.5879328474354
 30
0.0
 11
102.7190258694408
 21
121.8393431252034
 31
0.0
  0
LINE
  5
163
330
1F
100
AcDbEntity
  8
Sichtbare_Kanten_TC_020513_DIN_
  6
Continuous
 62
     7
100
AcDbLine
 10
96.71902586944077
 20
125.5879328474354
 30
0.0
 11
102.7190258694408
 21
122.1279328474354
 31
0.0
  0
LINE
  5
164
330
1F
100
AcDbEntity
  8
Sichtbare_Kanten_TC_020513_DIN_
  6
Continuous
 62
     7
100
AcDbLine
 10
102.7190258694408
 20
122.1279328474354
 30
0.0
 11
108.7190258694411
 21
125.5879328474354
 31
0.0
  0
LINE
  5
165
330
1F
100
AcDbEntity
  8
Sichtbare_Kanten_TC_020513_DIN_
  6
Continuous
 62
     7
100
AcDbLine
 10
102.7190258694408
 20
121.8393431252034
 30
0.0
 11
96.21858126441464
 21
125.5879328474354
 31
0.0
  0
LINE
  5
166
330
1F
100
AcDbEntity
  8
Sichtbare_Kanten_TC_020513_DIN_
  6
Continuous
 62
     7
100
AcDbLine
 10
96.21858126441464
 20
125.5879328474354
 30
0.0
 11
102.7190258694408
 21
129.3365225696664
 31
0.0
  0
LINE
  5
167
330
1F
100
AcDbEntity
  8
Sichtbare_Kanten_TC_020513_DIN_
  6
Continuous
 62
     7
100
AcDbLine
 10
100.9690258694408
 20
124.1760225141364
 30
0.0
 11
102.8439148169333
 21
123.0948365544154
 31
0.0
  0
LINE
  5
168
330
1F
100
AcDbEntity
  8
Sichtbare_Kanten_TC_020513_DIN_
  6
Continuous
 62
     7
100
AcDbLine
 10
102.5941369219482
 20
122.6616956960594
 30
0.0
 11
100.5941369219484
 21
123.8150290293934
 31
0.0
  0
LINE
  5
169
330
1F
100
AcDbEntity
  8
Sichtbare_Kanten_TC_020513_DIN_
  6
Continuous
 62
     7
100
AcDbLine
 10
100.9690258694408
 20
127.1442662362994
 30
0.0
 11
100.9690258694408
 21
124.1760225141364
 31
0.0
  0
LINE
  5
16A
330
1F
100
AcDbEntity
  8
Sichtbare_Kanten_TC_020513_DIN_
  6
Continuous
 62
     7
100
AcDbLine
 10
100.4690258694408
 20
124.0315994585704
 30
0.0
 11
100.4690258694408
 21
127.1442662362994
 31
0.0
  0
LINE
  5
16B
330
1F
100
AcDbEntity
  8
Sichtbare_Kanten_TC_020513_DIN_
  6
Continuous
 62
     7
100
AcDbLine
 10
103.9690258694408
 20
127.7209329029664
 30
0.0
 11
103.9690258694408
 21
123.4549327919044
 31
0.0
  0
LINE
  5
16C
330
1F
100
AcDbEntity
  8
Sichtbare_Kanten_TC_020513_DIN_
  6
Continuous
 62
     7
100
AcDbLine
 10
103.4690258694408
 20
123.4549327919044
 30
0.0
 11
103.4690258694408
 21
126.9681638747004
 31
0.0
  0
LINE
  5
16D
330
1F
100
AcDbEntity
  8
Sichtbare_Kanten_TC_020513_DIN_
  6
Continuous
 62
     7
100
AcDbLine
 10
103.4690258694408
 20
126.9681638747004
 30
0.0
 11
102.7190258694408
 21
125.9635505252154
 31
0.0
  0
LINE
  5
16E
330
1F
100
AcDbEntity
  8
Sichtbare_Kanten_TC_020513_DIN_
  6
Continuous
 62
     7
100
AcDbLine
 10
102.7190258694408
 20
125.9635505252154
 30
0.0
 11
101.9690258694408
 21
126.9681638747004
 31
0.0
  0
LINE
  5
16F
330
1F
100
AcDbEntity
  8
Sichtbare_Kanten_TC_020513_DIN_
  6
Continuous
 62
     7
100
AcDbLine
 10
101.9690258694408
 20
126.9681638747004
 30
0.0
 11
101.9690258694408
 21
124.5979328474354
 31
0.0
  0
LINE
  5
170
330
1F
100
AcDbEntity
  8
Sichtbare_Kanten_TC_020513_DIN_
  6
Continuous
 62
     7
100
AcDbLine
 10
102.7190258694408
 20
126.7993463487574
 30
0.0
 11
103.5186951743939
 21
127.8704909606624
 31
0.0
  0
LINE
  5
171
330
1F
100
AcDbEntity
  8
Sichtbare_Kanten_TC_020513_DIN_
  6
Continuous
 62
     7
100
AcDbLine
 10
101.9193565644877
 20
127.8704909606624
 30
0.0
 11
102.7190258694408
 21
126.7993463487574
 31
0.0
  0
LINE
  5
172
330
1F
100
AcDbEntity
  8
Sichtbare_Kanten_TC_020513_DIN_
  6
Continuous
 62
     7
100
AcDbLine
 10
101.4690258694408
 20
124.5979328474354
 30
0.0
 11
101.4690258694408
 21
127.7209329029664
 31
0.0
  0
LINE
  5
173
330
1F
100
AcDbEntity
  8
Sichtbare_Kanten_TC_020513_DIN_
  6
Continuous
 62
     7
100
AcDbLine
 10
151.9103300478571
 20
145.1879328474354
 30
0.0
 11
158.2436633811901
 21
114.1879328474354
 31
0.0
  0
LINE
  5
174
330
1F
100
AcDbEntity
  8
Sichtbare_Kanten_TC_020513_DIN_
  6
Continuous
 62
     7
100
AcDbLine
 10
53.52772169102474
 20
145.1879328474354
 30
0.0
 11
151.9103300478571
 21
145.1879328474354
 31
0.0
  0
LINE
  5
175
330
1F
100
AcDbEntity
  8
Sichtbare_Kanten_TC_020513_DIN_
  6
Continuous
 62
     7
100
AcDbLine
 10
47.19438835769142
 20
114.1879328474354
 30
0.0
 11
53.52772169102474
 21
145.1879328474354
 31
0.0
  0
LINE
  5
176
330
1F
100
AcDbEntity
  8
Sichtbare_Kanten_TC_020513_DIN_
  6
Continuous
 62
     7
100
AcDbLine
 10
47.19438835769142
 20
114.1879328474354
 30
0.0
 11
158.2436633811901
 21
114.1879328474354
 31
0.0
  0
LINE
  5
177
330
1F
100
AcDbEntity
  8
Sichtbare_Kanten_TC_020513_DIN_
  6
Continuous
 62
     7
100
AcDbLine
 10
57.11715617916173
 20
146.1879328474354
 30
0.0
 11
148.3208955597191
 21
146.1879328474354
 31
0.0
  0
LINE
  5
178
330
1F
100
AcDbEntity
  8
Sichtbare_Kanten_TC_020513_DIN_
  6
Continuous
 62
     7
100
AcDbLine
 10
42.71902586944077
 20
88.43793284743509
 30
0.0
 11
43.41902586944076
 21
89.13793284743508
 31
0.0
  0
LINE
  5
179
330
1F
100
AcDbEntity
  8
Sichtbare_Kanten_TC_020513_DIN_
  6
Continuous
 62
     7
100
AcDbLine
 10
43.41902586944076
 20
89.13793284743508
 30
0.0
 11
48.71902586944077
 21
89.13793284743508
 31
0.0
  0
LINE
  5
17A
330
1F
100
AcDbEntity
  8
Sichtbare_Kanten_TC_020513_DIN_
  6
Continuous
 62
     7
100
AcDbLine
 10
156.7190258694411
 20
89.13793284743508
 30
0.0
 11
48.71902586944077
 21
89.13793284743508
 31
0.0
  0
LINE
  5
17B
330
1F
100
AcDbEntity
  8
Sichtbare_Kanten_TC_020513_DIN_
  6
Continuous
 62
     7
100
AcDbLine
 10
162.7190258694411
 20
88.43793284743509
 30
0.0
 11
162.0190258694412
 21
89.13793284743508
 31
0.0
  0
LINE
  5
17C
330
1F
100
AcDbEntity
  8
Sichtbare_Kanten_TC_020513_DIN_
  6
Continuous
 62
     7
100
AcDbLine
 10
156.7190258694411
 20
89.13793284743508
 30
0.0
 11
162.0190258694412
 21
89.13793284743508
 31
0.0
  0
LINE
  5
17D
330
1F
100
AcDbEntity
  8
Sichtbare_Kanten_TC_020513_DIN_
  6
Continuous
 62
     7
100
AcDbLine
 10
48.71902586944077
 20
89.23793284743509
 30
0.0
 11
156.7190258694411
 21
89.23793284743509
 31
0.0
  0
LINE
  5
17E
330
1F
100
AcDbEntity
  8
Sichtbare_Kanten_TC_020513_DIN_
  6
Continuous
 62
     7
100
AcDbLine
 10
42.71902586944077
 20
89.93793284743509
 30
0.0
 11
43.41902586944076
 21
89.23793284743509
 31
0.0
  0
LINE
  5
17F
330
1F
100
AcDbEntity
  8
Sichtbare_Kanten_TC_020513_DIN_
  6
Continuous
 62
     7
100
AcDbLine
 10
48.71902586944077
 20
89.23793284743509
 30
0.0
 11
43.41902586944076
 21
89.23793284743509
 31
0.0
  0
LINE
  5
180
330
1F
100
AcDbEntity
  8
Sichtbare_Kanten_TC_020513_DIN_
  6
Continuous
 62
     7
100
AcDbLine
 10
162.0190258694412
 20
89.23793284743509
 30
0.0
 11
156.7190258694411
 21
89.23793284743509
 31
0.0
  0
LINE
  5
181
330
1F
100
AcDbEntity
  8
Sichtbare_Kanten_TC_020513_DIN_
  6
Continuous
 62
     7
100
AcDbLine
 10
162.0190258694412
 20
89.23793284743509
 30
0.0
 11
162.7190258694411
 21
89.93793284743509
 31
0.0
  0
LINE
  5
182
330
1F
100
AcDbEntity
  8
Sichtbare_Kanten_TC_020513_DIN_
  6
Continuous
 62
     7
100
AcDbLine
 10
162.0190258694412
 20
89.13793284743508
 30
0.0
 11
162.0190258694412
 21
89.23793284743509
 31
0.0
  0
LINE
  5
183
330
1F
100
AcDbEntity
  8
Sichtbare_Kanten_TC_020513_DIN_
  6
Continuous
 62
     7
100
AcDbLine
 10
43.41902586944076
 20
89.13793284743508
 30
0.0
 11
43.41902586944076
 21
89.23793284743509
 31
0.0
  0
LINE
  5
184
330
1F
100
AcDbEntity
  8
Sichtbare_Kanten_TC_020513_DIN_
  6
Continuous
 62
     7
100
AcDbLine
 10
221.7054879306031
 20
152.1879328474354
 30
0.0
 11
224.2054879306002
 21
152.1879328474354
 31
0.0
  0
LINE
  5
185
330
1F
100
AcDbEntity
  8
Sichtbare_Kanten_TC_020513_DIN_
  6
Continuous
 62
     7
100
AcDbLine
 10
262.2054879306002
 20
152.1879328474354
 30
0.0
 11
264.7054879306031
 21
152.1879328474354
 31
0.0
  0
LINE
  5
186
330
1F
100
AcDbEntity
  8
Sichtbare_Kanten_TC_020513_DIN_
  6
Continuous
 62
     7
100
AcDbLine
 10
221.9545128959771
 20
150.7756420886804
 30
0.0
 11
221.7054879306031
 21
152.1879328474354
 31
0.0
  0
LINE
  5
187
330
1F
100
AcDbEntity
  8
Sichtbare_Kanten_TC_020513_DIN_
  6
Continuous
 62
     7
100
AcDbLine
 10
264.4564629652291
 20
150.7756420886804
 30
0.0
 11
264.7054879306031
 21
152.1879328474354
 31
0.0
  0
LINE
  5
188
330
1F
100
AcDbEntity
  8
Sichtbare_Kanten_TC_020513_DIN_
  6
Continuous
 62
     7
100
AcDbLine
 10
224.2054879306002
 20
152.1879328474354
 30
0.0
 11
227.7054879305891
 21
152.1879328474354
 31
0.0
  0
LINE
  5
189
330
1F
100
AcDbEntity
  8
Sichtbare_Kanten_TC_020513_DIN_
  6
Continuous
 62
     7
100
AcDbLine
 10
258.7054879305891
 20
152.1879328474354
 30
0.0
 11
262.2054879306002
 21
152.1879328474354
 31
0.0
  0
LINE
  5
18A
330
1F
100
AcDbEntity
  8
Sichtbare_Kanten_TC_020513_DIN_
  6
Continuous
 62
     7
100
AcDbLine
 10
227.7054879305852
 20
100.9379328474351
 30
0.0
 11
221.7054879305872
 21
100.9379328474351
 31
0.0
  0
LINE
  5
18B
330
1F
100
AcDbEntity
  8
Sichtbare_Kanten_TC_020513_DIN_
  6
Continuous
 62
     7
100
AcDbLine
 10
221.7054879305872
 20
102.4379328474354
 30
0.0
 11
227.7054879305852
 21
102.4379328474354
 31
0.0
  0
LINE
  5
18C
330
1F
100
AcDbEntity
  8
Sichtbare_Kanten_TC_020513_DIN_
  6
Continuous
 62
     7
100
AcDbLine
 10
227.7054879305852
 20
98.43793284743509
 30
0.0
 11
221.7054879305872
 21
98.43793284743509
 31
0.0
  0
LINE
  5
18D
330
1F
100
AcDbEntity
  8
Sichtbare_Kanten_TC_020513_DIN_
  6
Continuous
 62
     7
100
AcDbLine
 10
221.7054879305872
 20
99.93793284743509
 30
0.0
 11
227.7054879305852
 21
99.93793284743509
 31
0.0
  0
LINE
  5
18E
330
1F
100
AcDbEntity
  8
Sichtbare_Kanten_TC_020513_DIN_
  6
Continuous
 62
     7
100
AcDbLine
 10
227.7054879305852
 20
95.93793284743509
 30
0.0
 11
221.7054879305872
 21
95.93793284743509
 31
0.0
  0
LINE
  5
18F
330
1F
100
AcDbEntity
  8
Sichtbare_Kanten_TC_020513_DIN_
  6
Continuous
 62
     7
100
AcDbLine
 10
221.7054879305872
 20
97.43793284743509
 30
0.0
 11
227.7054879305852
 21
97.43793284743509
 31
0.0
  0
LINE
  5
190
330
1F
100
AcDbEntity
  8
Sichtbare_Kanten_TC_020513_DIN_
  6
Continuous
 62
     7
100
AcDbLine
 10
227.7054879305852
 20
93.43793284743509
 30
0.0
 11
221.7054879305872
 21
93.43793284743509
 31
0.0
  0
LINE
  5
191
330
1F
100
AcDbEntity
  8
Sichtbare_Kanten_TC_020513_DIN_
  6
Continuous
 62
     7
100
AcDbLine
 10
221.7054879305872
 20
94.93793284743509
 30
0.0
 11
227.7054879305852
 21
94.93793284743509
 31
0.0
  0
LINE
  5
192
330
1F
100
AcDbEntity
  8
Sichtbare_Kanten_TC_020513_DIN_
  6
Continuous
 62
     7
100
AcDbLine
 10
227.7054879305852
 20
90.93793284743509
 30
0.0
 11
221.7054879305872
 21
90.93793284743509
 31
0.0
  0
LINE
  5
193
330
1F
100
AcDbEntity
  8
Sichtbare_Kanten_TC_020513_DIN_
  6
Continuous
 62
     7
100
AcDbLine
 10
221.7054879305872
 20
90.93793284743509
 30
0.0
 11
221.7054879305872
 21
89.93793284743509
 31
0.0
  0
LINE
  5
194
330
1F
100
AcDbEntity
  8
Sichtbare_Kanten_TC_020513_DIN_
  6
Continuous
 62
     7
100
AcDbLine
 10
221.7054879305872
 20
89.93793284743509
 30
0.0
 11
227.7054879305852
 21
89.93793284743509
 31
0.0
  0
LINE
  5
195
330
1F
100
AcDbEntity
  8
Sichtbare_Kanten_TC_020513_DIN_
  6
Continuous
 62
     7
100
AcDbLine
 10
221.7054879305872
 20
92.43793284743509
 30
0.0
 11
227.7054879305852
 21
92.43793284743509
 31
0.0
  0
LINE
  5
196
330
1F
100
AcDbEntity
  8
Sichtbare_Kanten_TC_020513_DIN_
  6
Continuous
 62
     7
100
AcDbLine
 10
221.7054879305872
 20
93.43793284743509
 30
0.0
 11
221.7054879305872
 21
92.43793284743509
 31
0.0
  0
LINE
  5
197
330
1F
100
AcDbEntity
  8
Sichtbare_Kanten_TC_020513_DIN_
  6
Continuous
 62
     7
100
AcDbLine
 10
221.7054879305872
 20
95.93793284743509
 30
0.0
 11
221.7054879305872
 21
94.93793284743509
 31
0.0
  0
LINE
  5
198
330
1F
100
AcDbEntity
  8
Sichtbare_Kanten_TC_020513_DIN_
  6
Continuous
 62
     7
100
AcDbLine
 10
221.7054879305872
 20
98.43793284743509
 30
0.0
 11
221.7054879305872
 21
97.43793284743509
 31
0.0
  0
LINE
  5
199
330
1F
100
AcDbEntity
  8
Sichtbare_Kanten_TC_020513_DIN_
  6
Continuous
 62
     7
100
AcDbLine
 10
221.7054879305872
 20
105.0812950156434
 30
0.0
 11
221.7054879305872
 21
102.4379328474354
 31
0.0
  0
LINE
  5
19A
330
1F
100
AcDbEntity
  8
Sichtbare_Kanten_TC_020513_DIN_
  6
Continuous
 62
     7
100
AcDbLine
 10
221.7054879305872
 20
100.9379328474351
 30
0.0
 11
221.7054879305872
 21
99.93793284743509
 31
0.0
  0
LINE
  5
19B
330
1F
100
AcDbEntity
  8
Sichtbare_Kanten_TC_020513_DIN_
  6
Continuous
 62
     7
100
AcDbLine
 10
221.7054879305872
 20
113.1879328474354
 30
0.0
 11
221.7054879305872
 21
105.0812950156434
 31
0.0
  0
LINE
  5
19C
330
1F
100
AcDbEntity
  8
Sichtbare_Kanten_TC_020513_DIN_
  6
Continuous
 62
     7
100
AcDbLine
 10
227.7054879305852
 20
88.43793284743509
 30
0.0
 11
221.7054879305872
 21
88.43793284743509
 31
0.0
  0
LINE
  5
19D
330
1F
100
AcDbEntity
  8
Sichtbare_Kanten_TC_020513_DIN_
  6
Continuous
 62
     7
100
AcDbLine
 10
221.7054879305872
 20
88.43793284743509
 30
0.0
 11
221.7054879305872
 21
76.18793284743509
 31
0.0
  0
LINE
  5
19E
330
1F
100
AcDbEntity
  8
Sichtbare_Kanten_TC_020513_DIN_
  6
Continuous
 62
     7
100
AcDbLine
 10
227.7054879305852
 20
76.18793284743509
 30
0.0
 11
221.7054879305872
 21
76.18793284743509
 31
0.0
  0
LINE
  5
19F
330
1F
100
AcDbEntity
  8
Sichtbare_Kanten_TC_020513_DIN_
  6
Continuous
 62
     7
100
AcDbLine
 10
264.7054879305872
 20
100.9379328474351
 30
0.0
 11
258.7054879305852
 21
100.9379328474351
 31
0.0
  0
LINE
  5
1A0
330
1F
100
AcDbEntity
  8
Sichtbare_Kanten_TC_020513_DIN_
  6
Continuous
 62
     7
100
AcDbLine
 10
264.7054879305872
 20
99.93793284743509
 30
0.0
 11
264.7054879305872
 21
100.9379328474351
 31
0.0
  0
LINE
  5
1A1
330
1F
100
AcDbEntity
  8
Sichtbare_Kanten_TC_020513_DIN_
  6
Continuous
 62
     7
100
AcDbLine
 10
258.7054879305852
 20
99.93793284743509
 30
0.0
 11
264.7054879305872
 21
99.93793284743509
 31
0.0
  0
LINE
  5
1A2
330
1F
100
AcDbEntity
  8
Sichtbare_Kanten_TC_020513_DIN_
  6
Continuous
 62
     7
100
AcDbLine
 10
258.7054879305852
 20
102.4379328474354
 30
0.0
 11
264.7054879305872
 21
102.4379328474354
 31
0.0
  0
LINE
  5
1A3
330
1F
100
AcDbEntity
  8
Sichtbare_Kanten_TC_020513_DIN_
  6
Continuous
 62
     7
100
AcDbLine
 10
264.7054879305872
 20
102.4379328474354
 30
0.0
 11
264.7054879305872
 21
105.0812950156434
 31
0.0
  0
LINE
  5
1A4
330
1F
100
AcDbEntity
  8
Sichtbare_Kanten_TC_020513_DIN_
  6
Continuous
 62
     7
100
AcDbLine
 10
264.7054879305872
 20
105.0812950156434
 30
0.0
 11
264.7054879305872
 21
113.1879328474354
 31
0.0
  0
LINE
  5
1A5
330
1F
100
AcDbEntity
  8
Sichtbare_Kanten_TC_020513_DIN_
  6
Continuous
 62
     7
100
AcDbLine
 10
264.7054879305872
 20
98.43793284743509
 30
0.0
 11
258.7054879305852
 21
98.43793284743509
 31
0.0
  0
LINE
  5
1A6
330
1F
100
AcDbEntity
  8
Sichtbare_Kanten_TC_020513_DIN_
  6
Continuous
 62
     7
100
AcDbLine
 10
264.7054879305872
 20
97.43793284743509
 30
0.0
 11
264.7054879305872
 21
98.43793284743509
 31
0.0
  0
LINE
  5
1A7
330
1F
100
AcDbEntity
  8
Sichtbare_Kanten_TC_020513_DIN_
  6
Continuous
 62
     7
100
AcDbLine
 10
258.7054879305852
 20
97.43793284743509
 30
0.0
 11
264.7054879305872
 21
97.43793284743509
 31
0.0
  0
LINE
  5
1A8
330
1F
100
AcDbEntity
  8
Sichtbare_Kanten_TC_020513_DIN_
  6
Continuous
 62
     7
100
AcDbLine
 10
264.7054879305872
 20
95.93793284743509
 30
0.0
 11
258.7054879305852
 21
95.93793284743509
 31
0.0
  0
LINE
  5
1A9
330
1F
100
AcDbEntity
  8
Sichtbare_Kanten_TC_020513_DIN_
  6
Continuous
 62
     7
100
AcDbLine
 10
264.7054879305872
 20
94.93793284743509
 30
0.0
 11
264.7054879305872
 21
95.93793284743509
 31
0.0
  0
LINE
  5
1AA
330
1F
100
AcDbEntity
  8
Sichtbare_Kanten_TC_020513_DIN_
  6
Continuous
 62
     7
100
AcDbLine
 10
258.7054879305852
 20
94.93793284743509
 30
0.0
 11
264.7054879305872
 21
94.93793284743509
 31
0.0
  0
LINE
  5
1AB
330
1F
100
AcDbEntity
  8
Sichtbare_Kanten_TC_020513_DIN_
  6
Continuous
 62
     7
100
AcDbLine
 10
264.7054879305872
 20
93.43793284743509
 30
0.0
 11
258.7054879305852
 21
93.43793284743509
 31
0.0
  0
LINE
  5
1AC
330
1F
100
AcDbEntity
  8
Sichtbare_Kanten_TC_020513_DIN_
  6
Continuous
 62
     7
100
AcDbLine
 10
264.7054879305872
 20
92.43793284743509
 30
0.0
 11
264.7054879305872
 21
93.43793284743509
 31
0.0
  0
LINE
  5
1AD
330
1F
100
AcDbEntity
  8
Sichtbare_Kanten_TC_020513_DIN_
  6
Continuous
 62
     7
100
AcDbLine
 10
258.7054879305852
 20
92.43793284743509
 30
0.0
 11
264.7054879305872
 21
92.43793284743509
 31
0.0
  0
LINE
  5
1AE
330
1F
100
AcDbEntity
  8
Sichtbare_Kanten_TC_020513_DIN_
  6
Continuous
 62
     7
100
AcDbLine
 10
264.7054879305872
 20
90.93793284743509
 30
0.0
 11
258.7054879305852
 21
90.93793284743509
 31
0.0
  0
LINE
  5
1AF
330
1F
100
AcDbEntity
  8
Sichtbare_Kanten_TC_020513_DIN_
  6
Continuous
 62
     7
100
AcDbLine
 10
264.7054879305872
 20
89.93793284743509
 30
0.0
 11
264.7054879305872
 21
90.93793284743509
 31
0.0
  0
LINE
  5
1B0
330
1F
100
AcDbEntity
  8
Sichtbare_Kanten_TC_020513_DIN_
  6
Continuous
 62
     7
100
AcDbLine
 10
258.7054879305852
 20
89.93793284743509
 30
0.0
 11
264.7054879305872
 21
89.93793284743509
 31
0.0
  0
LINE
  5
1B1
330
1F
100
AcDbEntity
  8
Sichtbare_Kanten_TC_020513_DIN_
  6
Continuous
 62
     7
100
AcDbLine
 10
264.7054879305872
 20
88.43793284743509
 30
0.0
 11
258.7054879305852
 21
88.43793284743509
 31
0.0
  0
LINE
  5
1B2
330
1F
100
AcDbEntity
  8
Sichtbare_Kanten_TC_020513_DIN_
  6
Continuous
 62
     7
100
AcDbLine
 10
264.7054879305872
 20
76.18793284743509
 30
0.0
 11
264.7054879305872
 21
88.43793284743509
 31
0.0
  0
LINE
  5
1B3
330
1F
100
AcDbEntity
  8
Sichtbare_Kanten_TC_020513_DIN_
  6
Continuous
 62
     7
100
AcDbLine
 10
264.7054879305872
 20
76.18793284743509
 30
0.0
 11
258.7054879305852
 21
76.18793284743509
 31
0.0
  0
LINE
  5
1B4
330
1F
100
AcDbEntity
  8
Sichtbare_Kanten_TC_020513_DIN_
  6
Continuous
 62
     7
100
AcDbLine
 10
264.7054879305891
 20
146.1879328474354
 30
0.0
 11
264.7054879305902
 21
149.6879328474354
 31
0.0
  0
LINE
  5
1B5
330
1F
100
AcDbEntity
  8
Sichtbare_Kanten_TC_020513_DIN_
  6
Continuous
 62
     7
100
AcDbLine
 10
221.7054879305902
 20
149.6879328474354
 30
0.0
 11
221.7054879305891
 21
146.1879328474354
 31
0.0
  0
LINE
  5
1B6
330
1F
100
AcDbEntity
  8
Sichtbare_Kanten_TC_020513_DIN_
  6
Continuous
 62
     7
100
AcDbLine
 10
258.7054879305891
 20
152.1879328474354
 30
0.0
 11
227.7054879305891
 21
152.1879328474354
 31
0.0
  0
LINE
  5
1B7
330
1F
100
AcDbEntity
  8
Sichtbare_Kanten_TC_020513_DIN_
  6
Continuous
 62
     7
100
AcDbLine
 10
227.7054879305852
 20
100.9379328474351
 30
0.0
 11
241.7054879305852
 21
100.9379328474351
 31
0.0
  0
LINE
  5
1B8
330
1F
100
AcDbEntity
  8
Sichtbare_Kanten_TC_020513_DIN_
  6
Continuous
 62
     7
100
AcDbLine
 10
241.7054879305852
 20
102.4379328474354
 30
0.0
 11
227.7054879305852
 21
102.4379328474354
 31
0.0
  0
LINE
  5
1B9
330
1F
100
AcDbEntity
  8
Sichtbare_Kanten_TC_020513_DIN_
  6
Continuous
 62
     7
100
AcDbLine
 10
227.7054879305852
 20
98.43793284743509
 30
0.0
 11
241.7054879305852
 21
98.43793284743509
 31
0.0
  0
LINE
  5
1BA
330
1F
100
AcDbEntity
  8
Sichtbare_Kanten_TC_020513_DIN_
  6
Continuous
 62
     7
100
AcDbLine
 10
241.7054879305852
 20
99.93793284743509
 30
0.0
 11
227.7054879305852
 21
99.93793284743509
 31
0.0
  0
LINE
  5
1BB
330
1F
100
AcDbEntity
  8
Sichtbare_Kanten_TC_020513_DIN_
  6
Continuous
 62
     7
100
AcDbLine
 10
227.7054879305852
 20
95.93793284743509
 30
0.0
 11
241.7054879305852
 21
95.93793284743509
 31
0.0
  0
LINE
  5
1BC
330
1F
100
AcDbEntity
  8
Sichtbare_Kanten_TC_020513_DIN_
  6
Continuous
 62
     7
100
AcDbLine
 10
241.7054879305852
 20
97.43793284743509
 30
0.0
 11
227.7054879305852
 21
97.43793284743509
 31
0.0
  0
LINE
  5
1BD
330
1F
100
AcDbEntity
  8
Sichtbare_Kanten_TC_020513_DIN_
  6
Continuous
 62
     7
100
AcDbLine
 10
227.7054879305852
 20
93.43793284743509
 30
0.0
 11
241.7054879305852
 21
93.43793284743509
 31
0.0
  0
LINE
  5
1BE
330
1F
100
AcDbEntity
  8
Sichtbare_Kanten_TC_020513_DIN_
  6
Continuous
 62
     7
100
AcDbLine
 10
241.7054879305852
 20
94.93793284743509
 30
0.0
 11
227.7054879305852
 21
94.93793284743509
 31
0.0
  0
LINE
  5
1BF
330
1F
100
AcDbEntity
  8
Sichtbare_Kanten_TC_020513_DIN_
  6
Continuous
 62
     7
100
AcDbLine
 10
227.7054879305852
 20
90.93793284743509
 30
0.0
 11
241.7054879305852
 21
90.93793284743509
 31
0.0
  0
LINE
  5
1C0
330
1F
100
AcDbEntity
  8
Sichtbare_Kanten_TC_020513_DIN_
  6
Continuous
 62
     7
100
AcDbLine
 10
241.7054879305852
 20
98.43793284743509
 30
0.0
 11
241.7054879305852
 21
99.93793284743509
 31
0.0
  0
LINE
  5
1C1
330
1F
100
AcDbEntity
  8
Sichtbare_Kanten_TC_020513_DIN_
  6
Continuous
 62
     7
100
AcDbLine
 10
241.7054879305852
 20
95.93793284743509
 30
0.0
 11
241.7054879305852
 21
97.43793284743509
 31
0.0
  0
LINE
  5
1C2
330
1F
100
AcDbEntity
  8
Sichtbare_Kanten_TC_020513_DIN_
  6
Continuous
 62
     7
100
AcDbLine
 10
241.7054879305852
 20
93.43793284743509
 30
0.0
 11
241.7054879305852
 21
94.93793284743509
 31
0.0
  0
LINE
  5
1C3
330
1F
100
AcDbEntity
  8
Sichtbare_Kanten_TC_020513_DIN_
  6
Continuous
 62
     7
100
AcDbLine
 10
241.7054879305852
 20
92.43793284743509
 30
0.0
 11
227.7054879305852
 21
92.43793284743509
 31
0.0
  0
LINE
  5
1C4
330
1F
100
AcDbEntity
  8
Sichtbare_Kanten_TC_020513_DIN_
  6
Continuous
 62
     7
100
AcDbLine
 10
241.7054879305852
 20
90.93793284743509
 30
0.0
 11
241.7054879305852
 21
92.43793284743509
 31
0.0
  0
LINE
  5
1C5
330
1F
100
AcDbEntity
  8
Sichtbare_Kanten_TC_020513_DIN_
  6
Continuous
 62
     7
100
AcDbLine
 10
241.7054879305852
 20
89.93793284743509
 30
0.0
 11
227.7054879305852
 21
89.93793284743509
 31
0.0
  0
LINE
  5
1C6
330
1F
100
AcDbEntity
  8
Sichtbare_Kanten_TC_020513_DIN_
  6
Continuous
 62
     7
100
AcDbLine
 10
241.7054879305852
 20
88.43793284743509
 30
0.0
 11
241.7054879305852
 21
89.93793284743509
 31
0.0
  0
LINE
  5
1C7
330
1F
100
AcDbEntity
  8
Sichtbare_Kanten_TC_020513_DIN_
  6
Continuous
 62
     7
100
AcDbLine
 10
227.7054879305852
 20
88.43793284743509
 30
0.0
 11
241.7054879305852
 21
88.43793284743509
 31
0.0
  0
LINE
  5
1C8
330
1F
100
AcDbEntity
  8
Sichtbare_Kanten_TC_020513_DIN_
  6
Continuous
 62
     7
100
AcDbLine
 10
258.7054879305852
 20
76.18793284743509
 30
0.0
 11
227.7054879305852
 21
76.18793284743509
 31
0.0
  0
LINE
  5
1C9
330
1F
100
AcDbEntity
  8
Sichtbare_Kanten_TC_020513_DIN_
  6
Continuous
 62
     7
100
AcDbLine
 10
244.7054879305852
 20
88.43793284743509
 30
0.0
 11
258.7054879305852
 21
88.43793284743509
 31
0.0
  0
LINE
  5
1CA
330
1F
100
AcDbEntity
  8
Sichtbare_Kanten_TC_020513_DIN_
  6
Continuous
 62
     7
100
AcDbLine
 10
244.7054879305852
 20
89.93793284743509
 30
0.0
 11
244.7054879305852
 21
88.43793284743509
 31
0.0
  0
LINE
  5
1CB
330
1F
100
AcDbEntity
  8
Sichtbare_Kanten_TC_020513_DIN_
  6
Continuous
 62
     7
100
AcDbLine
 10
258.7054879305852
 20
89.93793284743509
 30
0.0
 11
244.7054879305852
 21
89.93793284743509
 31
0.0
  0
LINE
  5
1CC
330
1F
100
AcDbEntity
  8
Sichtbare_Kanten_TC_020513_DIN_
  6
Continuous
 62
     7
100
AcDbLine
 10
244.7054879305852
 20
90.93793284743509
 30
0.0
 11
258.7054879305852
 21
90.93793284743509
 31
0.0
  0
LINE
  5
1CD
330
1F
100
AcDbEntity
  8
Sichtbare_Kanten_TC_020513_DIN_
  6
Continuous
 62
     7
100
AcDbLine
 10
244.7054879305852
 20
92.43793284743509
 30
0.0
 11
244.7054879305852
 21
90.93793284743509
 31
0.0
  0
LINE
  5
1CE
330
1F
100
AcDbEntity
  8
Sichtbare_Kanten_TC_020513_DIN_
  6
Continuous
 62
     7
100
AcDbLine
 10
258.7054879305852
 20
92.43793284743509
 30
0.0
 11
244.7054879305852
 21
92.43793284743509
 31
0.0
  0
LINE
  5
1CF
330
1F
100
AcDbEntity
  8
Sichtbare_Kanten_TC_020513_DIN_
  6
Continuous
 62
     7
100
AcDbLine
 10
244.7054879305852
 20
93.43793284743509
 30
0.0
 11
258.7054879305852
 21
93.43793284743509
 31
0.0
  0
LINE
  5
1D0
330
1F
100
AcDbEntity
  8
Sichtbare_Kanten_TC_020513_DIN_
  6
Continuous
 62
     7
100
AcDbLine
 10
244.7054879305852
 20
94.93793284743509
 30
0.0
 11
244.7054879305852
 21
93.43793284743509
 31
0.0
  0
LINE
  5
1D1
330
1F
100
AcDbEntity
  8
Sichtbare_Kanten_TC_020513_DIN_
  6
Continuous
 62
     7
100
AcDbLine
 10
258.7054879305852
 20
94.93793284743509
 30
0.0
 11
244.7054879305852
 21
94.93793284743509
 31
0.0
  0
LINE
  5
1D2
330
1F
100
AcDbEntity
  8
Sichtbare_Kanten_TC_020513_DIN_
  6
Continuous
 62
     7
100
AcDbLine
 10
244.7054879305852
 20
95.93793284743509
 30
0.0
 11
258.7054879305852
 21
95.93793284743509
 31
0.0
  0
LINE
  5
1D3
330
1F
100
AcDbEntity
  8
Sichtbare_Kanten_TC_020513_DIN_
  6
Continuous
 62
     7
100
AcDbLine
 10
244.7054879305852
 20
97.43793284743509
 30
0.0
 11
244.7054879305852
 21
95.93793284743509
 31
0.0
  0
LINE
  5
1D4
330
1F
100
AcDbEntity
  8
Sichtbare_Kanten_TC_020513_DIN_
  6
Continuous
 62
     7
100
AcDbLine
 10
258.7054879305852
 20
97.43793284743509
 30
0.0
 11
244.7054879305852
 21
97.43793284743509
 31
0.0
  0
LINE
  5
1D5
330
1F
100
AcDbEntity
  8
Sichtbare_Kanten_TC_020513_DIN_
  6
Continuous
 62
     7
100
AcDbLine
 10
244.7054879305852
 20
98.43793284743509
 30
0.0
 11
258.7054879305852
 21
98.43793284743509
 31
0.0
  0
LINE
  5
1D6
330
1F
100
AcDbEntity
  8
Sichtbare_Kanten_TC_020513_DIN_
  6
Continuous
 62
     7
100
AcDbLine
 10
244.7054879305852
 20
99.93793284743509
 30
0.0
 11
244.7054879305852
 21
98.43793284743509
 31
0.0
  0
LINE
  5
1D7
330
1F
100
AcDbEntity
  8
Sichtbare_Kanten_TC_020513_DIN_
  6
Continuous
 62
     7
100
AcDbLine
 10
258.7054879305852
 20
99.93793284743509
 30
0.0
 11
244.7054879305852
 21
99.93793284743509
 31
0.0
  0
LINE
  5
1D8
330
1F
100
AcDbEntity
  8
Sichtbare_Kanten_TC_020513_DIN_
  6
Continuous
 62
     7
100
AcDbLine
 10
244.7054879305852
 20
100.9379328474351
 30
0.0
 11
258.7054879305852
 21
100.9379328474351
 31
0.0
  0
LINE
  5
1D9
330
1F
100
AcDbEntity
  8
Sichtbare_Kanten_TC_020513_DIN_
  6
Continuous
 62
     7
100
AcDbLine
 10
244.7054879305852
 20
102.4379328474354
 30
0.0
 11
244.7054879305852
 21
100.9379328474351
 31
0.0
  0
LINE
  5
1DA
330
1F
100
AcDbEntity
  8
Sichtbare_Kanten_TC_020513_DIN_
  6
Continuous
 62
     7
100
AcDbLine
 10
258.7054879305852
 20
102.4379328474354
 30
0.0
 11
244.7054879305852
 21
102.4379328474354
 31
0.0
  0
LINE
  5
1DB
330
1F
100
AcDbEntity
  8
Sichtbare_Kanten_TC_020513_DIN_
  6
Continuous
 62
     7
100
AcDbLine
 10
241.7054879305852
 20
100.9379328474351
 30
0.0
 11
241.7054879305852
 21
102.4379328474354
 31
0.0
  0
LINE
  5
1DC
330
1F
100
AcDbEntity
  8
Sichtbare_Kanten_TC_020513_DIN_
  6
Continuous
 62
     7
100
AcDbLine
 10
227.7054879305852
 20
101.6379328474354
 30
0.0
 11
241.7054879305852
 21
101.6379328474354
 31
0.0
  0
LINE
  5
1DD
330
1F
100
AcDbEntity
  8
Sichtbare_Kanten_TC_020513_DIN_
  6
Continuous
 62
     7
100
AcDbLine
 10
227.7054879305852
 20
101.6379328474354
 30
0.0
 11
222.4054879305871
 21
101.6379328474354
 31
0.0
  0
LINE
  5
1DE
330
1F
100
AcDbEntity
  8
Sichtbare_Kanten_TC_020513_DIN_
  6
Continuous
 62
     7
100
AcDbLine
 10
222.4054879305871
 20
101.6379328474354
 30
0.0
 11
221.7054879305872
 21
100.9379328474351
 31
0.0
  0
LINE
  5
1DF
330
1F
100
AcDbEntity
  8
Sichtbare_Kanten_TC_020513_DIN_
  6
Continuous
 62
     7
100
AcDbLine
 10
222.4054879305871
 20
101.7379328474354
 30
0.0
 11
221.7054879305872
 21
102.4379328474354
 31
0.0
  0
LINE
  5
1E0
330
1F
100
AcDbEntity
  8
Sichtbare_Kanten_TC_020513_DIN_
  6
Continuous
 62
     7
100
AcDbLine
 10
222.4054879305871
 20
101.7379328474354
 30
0.0
 11
227.7054879305852
 21
101.7379328474354
 31
0.0
  0
LINE
  5
1E1
330
1F
100
AcDbEntity
  8
Sichtbare_Kanten_TC_020513_DIN_
  6
Continuous
 62
     7
100
AcDbLine
 10
241.7054879305852
 20
101.7379328474354
 30
0.0
 11
227.7054879305852
 21
101.7379328474354
 31
0.0
  0
LINE
  5
1E2
330
1F
100
AcDbEntity
  8
Sichtbare_Kanten_TC_020513_DIN_
  6
Continuous
 62
     7
100
AcDbLine
 10
227.7054879305852
 20
99.13793284743508
 30
0.0
 11
241.7054879305852
 21
99.13793284743508
 31
0.0
  0
LINE
  5
1E3
330
1F
100
AcDbEntity
  8
Sichtbare_Kanten_TC_020513_DIN_
  6
Continuous
 62
     7
100
AcDbLine
 10
227.7054879305852
 20
99.13793284743508
 30
0.0
 11
222.4054879305871
 21
99.13793284743508
 31
0.0
  0
LINE
  5
1E4
330
1F
100
AcDbEntity
  8
Sichtbare_Kanten_TC_020513_DIN_
  6
Continuous
 62
     7
100
AcDbLine
 10
222.4054879305871
 20
99.13793284743508
 30
0.0
 11
221.7054879305872
 21
98.43793284743509
 31
0.0
  0
LINE
  5
1E5
330
1F
100
AcDbEntity
  8
Sichtbare_Kanten_TC_020513_DIN_
  6
Continuous
 62
     7
100
AcDbLine
 10
222.4054879305871
 20
99.23793284743509
 30
0.0
 11
221.7054879305872
 21
99.93793284743509
 31
0.0
  0
LINE
  5
1E6
330
1F
100
AcDbEntity
  8
Sichtbare_Kanten_TC_020513_DIN_
  6
Continuous
 62
     7
100
AcDbLine
 10
222.4054879305871
 20
99.23793284743509
 30
0.0
 11
227.7054879305852
 21
99.23793284743509
 31
0.0
  0
LINE
  5
1E7
330
1F
100
AcDbEntity
  8
Sichtbare_Kanten_TC_020513_DIN_
  6
Continuous
 62
     7
100
AcDbLine
 10
241.7054879305852
 20
99.23793284743509
 30
0.0
 11
227.7054879305852
 21
99.23793284743509
 31
0.0
  0
LINE
  5
1E8
330
1F
100
AcDbEntity
  8
Sichtbare_Kanten_TC_020513_DIN_
  6
Continuous
 62
     7
100
AcDbLine
 10
227.7054879305852
 20
96.63793284743508
 30
0.0
 11
241.7054879305852
 21
96.63793284743508
 31
0.0
  0
LINE
  5
1E9
330
1F
100
AcDbEntity
  8
Sichtbare_Kanten_TC_020513_DIN_
  6
Continuous
 62
     7
100
AcDbLine
 10
227.7054879305852
 20
96.63793284743508
 30
0.0
 11
222.4054879305871
 21
96.63793284743508
 31
0.0
  0
LINE
  5
1EA
330
1F
100
AcDbEntity
  8
Sichtbare_Kanten_TC_020513_DIN_
  6
Continuous
 62
     7
100
AcDbLine
 10
222.4054879305871
 20
96.63793284743508
 30
0.0
 11
221.7054879305872
 21
95.93793284743509
 31
0.0
  0
LINE
  5
1EB
330
1F
100
AcDbEntity
  8
Sichtbare_Kanten_TC_020513_DIN_
  6
Continuous
 62
     7
100
AcDbLine
 10
222.4054879305871
 20
96.73793284743509
 30
0.0
 11
221.7054879305872
 21
97.43793284743509
 31
0.0
  0
LINE
  5
1EC
330
1F
100
AcDbEntity
  8
Sichtbare_Kanten_TC_020513_DIN_
  6
Continuous
 62
     7
100
AcDbLine
 10
222.4054879305871
 20
96.73793284743509
 30
0.0
 11
227.7054879305852
 21
96.73793284743509
 31
0.0
  0
LINE
  5
1ED
330
1F
100
AcDbEntity
  8
Sichtbare_Kanten_TC_020513_DIN_
  6
Continuous
 62
     7
100
AcDbLine
 10
241.7054879305852
 20
96.73793284743509
 30
0.0
 11
227.7054879305852
 21
96.73793284743509
 31
0.0
  0
LINE
  5
1EE
330
1F
100
AcDbEntity
  8
Sichtbare_Kanten_TC_020513_DIN_
  6
Continuous
 62
     7
100
AcDbLine
 10
227.7054879305852
 20
94.13793284743508
 30
0.0
 11
241.7054879305852
 21
94.13793284743508
 31
0.0
  0
LINE
  5
1EF
330
1F
100
AcDbEntity
  8
Sichtbare_Kanten_TC_020513_DIN_
  6
Continuous
 62
     7
100
AcDbLine
 10
227.7054879305852
 20
94.13793284743508
 30
0.0
 11
222.4054879305871
 21
94.13793284743508
 31
0.0
  0
LINE
  5
1F0
330
1F
100
AcDbEntity
  8
Sichtbare_Kanten_TC_020513_DIN_
  6
Continuous
 62
     7
100
AcDbLine
 10
222.4054879305871
 20
94.13793284743508
 30
0.0
 11
221.7054879305872
 21
93.43793284743509
 31
0.0
  0
LINE
  5
1F1
330
1F
100
AcDbEntity
  8
Sichtbare_Kanten_TC_020513_DIN_
  6
Continuous
 62
     7
100
AcDbLine
 10
222.4054879305871
 20
94.23793284743509
 30
0.0
 11
221.7054879305872
 21
94.93793284743509
 31
0.0
  0
LINE
  5
1F2
330
1F
100
AcDbEntity
  8
Sichtbare_Kanten_TC_020513_DIN_
  6
Continuous
 62
     7
100
AcDbLine
 10
222.4054879305871
 20
94.23793284743509
 30
0.0
 11
227.7054879305852
 21
94.23793284743509
 31
0.0
  0
LINE
  5
1F3
330
1F
100
AcDbEntity
  8
Sichtbare_Kanten_TC_020513_DIN_
  6
Continuous
 62
     7
100
AcDbLine
 10
241.7054879305852
 20
94.23793284743509
 30
0.0
 11
227.7054879305852
 21
94.23793284743509
 31
0.0
  0
LINE
  5
1F4
330
1F
100
AcDbEntity
  8
Sichtbare_Kanten_TC_020513_DIN_
  6
Continuous
 62
     7
100
AcDbLine
 10
227.7054879305852
 20
91.63793284743508
 30
0.0
 11
222.4054879305871
 21
91.63793284743508
 31
0.0
  0
LINE
  5
1F5
330
1F
100
AcDbEntity
  8
Sichtbare_Kanten_TC_020513_DIN_
  6
Continuous
 62
     7
100
AcDbLine
 10
222.4054879305871
 20
91.63793284743508
 30
0.0
 11
221.7054879305872
 21
90.93793284743509
 31
0.0
  0
LINE
  5
1F6
330
1F
100
AcDbEntity
  8
Sichtbare_Kanten_TC_020513_DIN_
  6
Continuous
 62
     7
100
AcDbLine
 10
227.7054879305852
 20
91.63793284743508
 30
0.0
 11
241.7054879305852
 21
91.63793284743508
 31
0.0
  0
LINE
  5
1F7
330
1F
100
AcDbEntity
  8
Sichtbare_Kanten_TC_020513_DIN_
  6
Continuous
 62
     7
100
AcDbLine
 10
222.4054879305871
 20
91.73793284743509
 30
0.0
 11
221.7054879305872
 21
92.43793284743509
 31
0.0
  0
LINE
  5
1F8
330
1F
100
AcDbEntity
  8
Sichtbare_Kanten_TC_020513_DIN_
  6
Continuous
 62
     7
100
AcDbLine
 10
222.4054879305871
 20
91.73793284743509
 30
0.0
 11
227.7054879305852
 21
91.73793284743509
 31
0.0
  0
LINE
  5
1F9
330
1F
100
AcDbEntity
  8
Sichtbare_Kanten_TC_020513_DIN_
  6
Continuous
 62
     7
100
AcDbLine
 10
241.7054879305852
 20
91.73793284743509
 30
0.0
 11
227.7054879305852
 21
91.73793284743509
 31
0.0
  0
LINE
  5
1FA
330
1F
100
AcDbEntity
  8
Sichtbare_Kanten_TC_020513_DIN_
  6
Continuous
 62
     7
100
AcDbLine
 10
222.4054879305871
 20
101.6379328474354
 30
0.0
 11
222.4054879305871
 21
101.7379328474354
 31
0.0
  0
LINE
  5
1FB
330
1F
100
AcDbEntity
  8
Sichtbare_Kanten_TC_020513_DIN_
  6
Continuous
 62
     7
100
AcDbLine
 10
222.4054879305871
 20
99.13793284743508
 30
0.0
 11
222.4054879305871
 21
99.23793284743509
 31
0.0
  0
LINE
  5
1FC
330
1F
100
AcDbEntity
  8
Sichtbare_Kanten_TC_020513_DIN_
  6
Continuous
 62
     7
100
AcDbLine
 10
222.4054879305871
 20
96.63793284743508
 30
0.0
 11
222.4054879305871
 21
96.73793284743509
 31
0.0
  0
LINE
  5
1FD
330
1F
100
AcDbEntity
  8
Sichtbare_Kanten_TC_020513_DIN_
  6
Continuous
 62
     7
100
AcDbLine
 10
222.4054879305871
 20
94.13793284743508
 30
0.0
 11
222.4054879305871
 21
94.23793284743509
 31
0.0
  0
LINE
  5
1FE
330
1F
100
AcDbEntity
  8
Sichtbare_Kanten_TC_020513_DIN_
  6
Continuous
 62
     7
100
AcDbLine
 10
222.4054879305871
 20
91.63793284743508
 30
0.0
 11
222.4054879305871
 21
91.73793284743509
 31
0.0
  0
LINE
  5
1FF
330
1F
100
AcDbEntity
  8
Sichtbare_Kanten_TC_020513_DIN_
  6
Continuous
 62
     7
100
AcDbLine
 10
221.7054879305872
 20
88.43793284743509
 30
0.0
 11
222.4054879305871
 21
89.13793284743508
 31
0.0
  0
LINE
  5
200
330
1F
100
AcDbEntity
  8
Sichtbare_Kanten_TC_020513_DIN_
  6
Continuous
 62
     7
100
AcDbLine
 10
227.7054879305852
 20
89.13793284743508
 30
0.0
 11
222.4054879305871
 21
89.13793284743508
 31
0.0
  0
LINE
  5
201
330
1F
100
AcDbEntity
  8
Sichtbare_Kanten_TC_020513_DIN_
  6
Continuous
 62
     7
100
AcDbLine
 10
227.7054879305852
 20
89.13793284743508
 30
0.0
 11
241.7054879305852
 21
89.13793284743508
 31
0.0
  0
LINE
  5
202
330
1F
100
AcDbEntity
  8
Sichtbare_Kanten_TC_020513_DIN_
  6
Continuous
 62
     7
100
AcDbLine
 10
222.4054879305871
 20
89.23793284743509
 30
0.0
 11
221.7054879305872
 21
89.93793284743509
 31
0.0
  0
LINE
  5
203
330
1F
100
AcDbEntity
  8
Sichtbare_Kanten_TC_020513_DIN_
  6
Continuous
 62
     7
100
AcDbLine
 10
222.4054879305871
 20
89.23793284743509
 30
0.0
 11
227.7054879305852
 21
89.23793284743509
 31
0.0
  0
LINE
  5
204
330
1F
100
AcDbEntity
  8
Sichtbare_Kanten_TC_020513_DIN_
  6
Continuous
 62
     7
100
AcDbLine
 10
241.7054879305852
 20
89.23793284743509
 30
0.0
 11
227.7054879305852
 21
89.23793284743509
 31
0.0
  0
LINE
  5
205
330
1F
100
AcDbEntity
  8
Sichtbare_Kanten_TC_020513_DIN_
  6
Continuous
 62
     7
100
AcDbLine
 10
222.4054879305871
 20
89.13793284743508
 30
0.0
 11
222.4054879305871
 21
89.23793284743509
 31
0.0
  0
LINE
  5
206
330
1F
100
AcDbEntity
  8
Sichtbare_Kanten_TC_020513_DIN_
  6
Continuous
 62
     7
100
AcDbLine
 10
258.7054879305852
 20
101.6379328474354
 30
0.0
 11
244.7054879305852
 21
101.6379328474354
 31
0.0
  0
LINE
  5
207
330
1F
100
AcDbEntity
  8
Sichtbare_Kanten_TC_020513_DIN_
  6
Continuous
 62
     7
100
AcDbLine
 10
264.7054879305872
 20
100.9379328474351
 30
0.0
 11
264.0054879305872
 21
101.6379328474354
 31
0.0
  0
LINE
  5
208
330
1F
100
AcDbEntity
  8
Sichtbare_Kanten_TC_020513_DIN_
  6
Continuous
 62
     7
100
AcDbLine
 10
258.7054879305852
 20
101.6379328474354
 30
0.0
 11
264.0054879305872
 21
101.6379328474354
 31
0.0
  0
LINE
  5
209
330
1F
100
AcDbEntity
  8
Sichtbare_Kanten_TC_020513_DIN_
  6
Continuous
 62
     7
100
AcDbLine
 10
264.7054879305872
 20
102.4379328474354
 30
0.0
 11
264.0054879305872
 21
101.7379328474354
 31
0.0
  0
LINE
  5
20A
330
1F
100
AcDbEntity
  8
Sichtbare_Kanten_TC_020513_DIN_
  6
Continuous
 62
     7
100
AcDbLine
 10
264.0054879305872
 20
101.7379328474354
 30
0.0
 11
258.7054879305852
 21
101.7379328474354
 31
0.0
  0
LINE
  5
20B
330
1F
100
AcDbEntity
  8
Sichtbare_Kanten_TC_020513_DIN_
  6
Continuous
 62
     7
100
AcDbLine
 10
244.7054879305852
 20
101.7379328474354
 30
0.0
 11
258.7054879305852
 21
101.7379328474354
 31
0.0
  0
LINE
  5
20C
330
1F
100
AcDbEntity
  8
Sichtbare_Kanten_TC_020513_DIN_
  6
Continuous
 62
     7
100
AcDbLine
 10
258.7054879305852
 20
99.13793284743508
 30
0.0
 11
244.7054879305852
 21
99.13793284743508
 31
0.0
  0
LINE
  5
20D
330
1F
100
AcDbEntity
  8
Sichtbare_Kanten_TC_020513_DIN_
  6
Continuous
 62
     7
100
AcDbLine
 10
264.7054879305872
 20
98.43793284743509
 30
0.0
 11
264.0054879305872
 21
99.13793284743508
 31
0.0
  0
LINE
  5
20E
330
1F
100
AcDbEntity
  8
Sichtbare_Kanten_TC_020513_DIN_
  6
Continuous
 62
     7
100
AcDbLine
 10
258.7054879305852
 20
99.13793284743508
 30
0.0
 11
264.0054879305872
 21
99.13793284743508
 31
0.0
  0
LINE
  5
20F
330
1F
100
AcDbEntity
  8
Sichtbare_Kanten_TC_020513_DIN_
  6
Continuous
 62
     7
100
AcDbLine
 10
264.7054879305872
 20
99.93793284743509
 30
0.0
 11
264.0054879305872
 21
99.23793284743509
 31
0.0
  0
LINE
  5
210
330
1F
100
AcDbEntity
  8
Sichtbare_Kanten_TC_020513_DIN_
  6
Continuous
 62
     7
100
AcDbLine
 10
264.0054879305872
 20
99.23793284743509
 30
0.0
 11
258.7054879305852
 21
99.23793284743509
 31
0.0
  0
LINE
  5
211
330
1F
100
AcDbEntity
  8
Sichtbare_Kanten_TC_020513_DIN_
  6
Continuous
 62
     7
100
AcDbLine
 10
244.7054879305852
 20
99.23793284743509
 30
0.0
 11
258.7054879305852
 21
99.23793284743509
 31
0.0
  0
LINE
  5
212
330
1F
100
AcDbEntity
  8
Sichtbare_Kanten_TC_020513_DIN_
  6
Continuous
 62
     7
100
AcDbLine
 10
258.7054879305852
 20
96.63793284743508
 30
0.0
 11
244.7054879305852
 21
96.63793284743508
 31
0.0
  0
LINE
  5
213
330
1F
100
AcDbEntity
  8
Sichtbare_Kanten_TC_020513_DIN_
  6
Continuous
 62
     7
100
AcDbLine
 10
264.7054879305872
 20
95.93793284743509
 30
0.0
 11
264.0054879305872
 21
96.63793284743508
 31
0.0
  0
LINE
  5
214
330
1F
100
AcDbEntity
  8
Sichtbare_Kanten_TC_020513_DIN_
  6
Continuous
 62
     7
100
AcDbLine
 10
258.7054879305852
 20
96.63793284743508
 30
0.0
 11
264.0054879305872
 21
96.63793284743508
 31
0.0
  0
LINE
  5
215
330
1F
100
AcDbEntity
  8
Sichtbare_Kanten_TC_020513_DIN_
  6
Continuous
 62
     7
100
AcDbLine
 10
264.7054879305872
 20
97.43793284743509
 30
0.0
 11
264.0054879305872
 21
96.73793284743509
 31
0.0
  0
LINE
  5
216
330
1F
100
AcDbEntity
  8
Sichtbare_Kanten_TC_020513_DIN_
  6
Continuous
 62
     7
100
AcDbLine
 10
264.0054879305872
 20
96.73793284743509
 30
0.0
 11
258.7054879305852
 21
96.73793284743509
 31
0.0
  0
LINE
  5
217
330
1F
100
AcDbEntity
  8
Sichtbare_Kanten_TC_020513_DIN_
  6
Continuous
 62
     7
100
AcDbLine
 10
244.7054879305852
 20
96.73793284743509
 30
0.0
 11
258.7054879305852
 21
96.73793284743509
 31
0.0
  0
LINE
  5
218
330
1F
100
AcDbEntity
  8
Sichtbare_Kanten_TC_020513_DIN_
  6
Continuous
 62
     7
100
AcDbLine
 10
258.7054879305852
 20
94.13793284743508
 30
0.0
 11
244.7054879305852
 21
94.13793284743508
 31
0.0
  0
LINE
  5
219
330
1F
100
AcDbEntity
  8
Sichtbare_Kanten_TC_020513_DIN_
  6
Continuous
 62
     7
100
AcDbLine
 10
264.7054879305872
 20
93.43793284743509
 30
0.0
 11
264.0054879305872
 21
94.13793284743508
 31
0.0
  0
LINE
  5
21A
330
1F
100
AcDbEntity
  8
Sichtbare_Kanten_TC_020513_DIN_
  6
Continuous
 62
     7
100
AcDbLine
 10
258.7054879305852
 20
94.13793284743508
 30
0.0
 11
264.0054879305872
 21
94.13793284743508
 31
0.0
  0
LINE
  5
21B
330
1F
100
AcDbEntity
  8
Sichtbare_Kanten_TC_020513_DIN_
  6
Continuous
 62
     7
100
AcDbLine
 10
264.7054879305872
 20
94.93793284743509
 30
0.0
 11
264.0054879305872
 21
94.23793284743509
 31
0.0
  0
LINE
  5
21C
330
1F
100
AcDbEntity
  8
Sichtbare_Kanten_TC_020513_DIN_
  6
Continuous
 62
     7
100
AcDbLine
 10
264.0054879305872
 20
94.23793284743509
 30
0.0
 11
258.7054879305852
 21
94.23793284743509
 31
0.0
  0
LINE
  5
21D
330
1F
100
AcDbEntity
  8
Sichtbare_Kanten_TC_020513_DIN_
  6
Continuous
 62
     7
100
AcDbLine
 10
244.7054879305852
 20
94.23793284743509
 30
0.0
 11
258.7054879305852
 21
94.23793284743509
 31
0.0
  0
LINE
  5
21E
330
1F
100
AcDbEntity
  8
Sichtbare_Kanten_TC_020513_DIN_
  6
Continuous
 62
     7
100
AcDbLine
 10
258.7054879305852
 20
91.63793284743508
 30
0.0
 11
244.7054879305852
 21
91.63793284743508
 31
0.0
  0
LINE
  5
21F
330
1F
100
AcDbEntity
  8
Sichtbare_Kanten_TC_020513_DIN_
  6
Continuous
 62
     7
100
AcDbLine
 10
264.7054879305872
 20
90.93793284743509
 30
0.0
 11
264.0054879305872
 21
91.63793284743508
 31
0.0
  0
LINE
  5
220
330
1F
100
AcDbEntity
  8
Sichtbare_Kanten_TC_020513_DIN_
  6
Continuous
 62
     7
100
AcDbLine
 10
258.7054879305852
 20
91.63793284743508
 30
0.0
 11
264.0054879305872
 21
91.63793284743508
 31
0.0
  0
LINE
  5
221
330
1F
100
AcDbEntity
  8
Sichtbare_Kanten_TC_020513_DIN_
  6
Continuous
 62
     7
100
AcDbLine
 10
264.7054879305872
 20
92.43793284743509
 30
0.0
 11
264.0054879305872
 21
91.73793284743509
 31
0.0
  0
LINE
  5
222
330
1F
100
AcDbEntity
  8
Sichtbare_Kanten_TC_020513_DIN_
  6
Continuous
 62
     7
100
AcDbLine
 10
264.0054879305872
 20
91.73793284743509
 30
0.0
 11
258.7054879305852
 21
91.73793284743509
 31
0.0
  0
LINE
  5
223
330
1F
100
AcDbEntity
  8
Sichtbare_Kanten_TC_020513_DIN_
  6
Continuous
 62
     7
100
AcDbLine
 10
244.7054879305852
 20
91.73793284743509
 30
0.0
 11
258.7054879305852
 21
91.73793284743509
 31
0.0
  0
LINE
  5
224
330
1F
100
AcDbEntity
  8
Sichtbare_Kanten_TC_020513_DIN_
  6
Continuous
 62
     7
100
AcDbLine
 10
264.0054879305872
 20
101.6379328474354
 30
0.0
 11
264.0054879305872
 21
101.7379328474354
 31
0.0
  0
LINE
  5
225
330
1F
100
AcDbEntity
  8
Sichtbare_Kanten_TC_020513_DIN_
  6
Continuous
 62
     7
100
AcDbLine
 10
264.0054879305872
 20
99.13793284743508
 30
0.0
 11
264.0054879305872
 21
99.23793284743509
 31
0.0
  0
LINE
  5
226
330
1F
100
AcDbEntity
  8
Sichtbare_Kanten_TC_020513_DIN_
  6
Continuous
 62
     7
100
AcDbLine
 10
264.0054879305872
 20
96.63793284743508
 30
0.0
 11
264.0054879305872
 21
96.73793284743509
 31
0.0
  0
LINE
  5
227
330
1F
100
AcDbEntity
  8
Sichtbare_Kanten_TC_020513_DIN_
  6
Continuous
 62
     7
100
AcDbLine
 10
264.0054879305872
 20
94.13793284743508
 30
0.0
 11
264.0054879305872
 21
94.23793284743509
 31
0.0
  0
LINE
  5
228
330
1F
100
AcDbEntity
  8
Sichtbare_Kanten_TC_020513_DIN_
  6
Continuous
 62
     7
100
AcDbLine
 10
264.0054879305872
 20
91.63793284743508
 30
0.0
 11
264.0054879305872
 21
91.73793284743509
 31
0.0
  0
LINE
  5
229
330
1F
100
AcDbEntity
  8
Sichtbare_Kanten_TC_020513_DIN_
  6
Continuous
 62
     7
100
AcDbLine
 10
258.7054879305852
 20
89.13793284743508
 30
0.0
 11
244.7054879305852
 21
89.13793284743508
 31
0.0
  0
LINE
  5
22A
330
1F
100
AcDbEntity
  8
Sichtbare_Kanten_TC_020513_DIN_
  6
Continuous
 62
     7
100
AcDbLine
 10
264.7054879305872
 20
88.43793284743509
 30
0.0
 11
264.0054879305872
 21
89.13793284743508
 31
0.0
  0
LINE
  5
22B
330
1F
100
AcDbEntity
  8
Sichtbare_Kanten_TC_020513_DIN_
  6
Continuous
 62
     7
100
AcDbLine
 10
258.7054879305852
 20
89.13793284743508
 30
0.0
 11
264.0054879305872
 21
89.13793284743508
 31
0.0
  0
LINE
  5
22C
330
1F
100
AcDbEntity
  8
Sichtbare_Kanten_TC_020513_DIN_
  6
Continuous
 62
     7
100
AcDbLine
 10
264.7054879305872
 20
89.93793284743509
 30
0.0
 11
264.0054879305872
 21
89.23793284743509
 31
0.0
  0
LINE
  5
22D
330
1F
100
AcDbEntity
  8
Sichtbare_Kanten_TC_020513_DIN_
  6
Continuous
 62
     7
100
AcDbLine
 10
264.0054879305872
 20
89.23793284743509
 30
0.0
 11
258.7054879305852
 21
89.23793284743509
 31
0.0
  0
LINE
  5
22E
330
1F
100
AcDbEntity
  8
Sichtbare_Kanten_TC_020513_DIN_
  6
Continuous
 62
     7
100
AcDbLine
 10
244.7054879305852
 20
89.23793284743509
 30
0.0
 11
258.7054879305852
 21
89.23793284743509
 31
0.0
  0
LINE
  5
22F
330
1F
100
AcDbEntity
  8
Sichtbare_Kanten_TC_020513_DIN_
  6
Continuous
 62
     7
100
AcDbLine
 10
264.0054879305872
 20
89.13793284743508
 30
0.0
 11
264.0054879305872
 21
89.23793284743509
 31
0.0
  0
LINE
  5
230
330
1F
100
AcDbEntity
  8
Sichtbare_Kanten_TC_020513_DIN_
  6
Continuous
 62
     7
100
AcDbLine
 10
263.7054879305861
 20
114.1879328474354
 30
0.0
 11
263.7054879305881
 21
145.1879328474354
 31
0.0
  0
LINE
  5
231
330
1F
100
AcDbEntity
  8
Sichtbare_Kanten_TC_020513_DIN_
  6
Continuous
 62
     7
100
AcDbLine
 10
263.7054879305861
 20
114.1879328474354
 30
0.0
 11
264.7054879305872
 21
113.1879328474354
 31
0.0
  0
LINE
  5
232
330
1F
100
AcDbEntity
  8
Sichtbare_Kanten_TC_020513_DIN_
  6
Continuous
 62
     7
100
AcDbLine
 10
264.7054879305891
 20
146.1879328474354
 30
0.0
 11
263.7054879305881
 21
145.1879328474354
 31
0.0
  0
LINE
  5
233
330
1F
100
AcDbEntity
  8
Sichtbare_Kanten_TC_020513_DIN_
  6
Continuous
 62
     7
100
AcDbLine
 10
222.7054879305881
 20
145.1879328474354
 30
0.0
 11
222.7054879305872
 21
114.1879328474354
 31
0.0
  0
LINE
  5
234
330
1F
100
AcDbEntity
  8
Sichtbare_Kanten_TC_020513_DIN_
  6
Continuous
 62
     7
100
AcDbLine
 10
222.7054879305881
 20
145.1879328474354
 30
0.0
 11
221.7054879305891
 21
146.1879328474354
 31
0.0
  0
LINE
  5
235
330
1F
100
AcDbEntity
  8
Sichtbare_Kanten_TC_020513_DIN_
  6
Continuous
 62
     7
100
AcDbLine
 10
221.7054879305872
 20
113.1879328474354
 30
0.0
 11
222.7054879305872
 21
114.1879328474354
 31
0.0
  0
ARC
  5
260
330
1F
100
AcDbEntity
  8
Sichtbare_Kanten_TC_020513_DIN_
  6
Continuous
 62
     7
100
AcDbCircle
 10
156.7190258694411
 20
105.0812950156434
 30
0.0
 40
6.0
100
AcDbArc
 50
0.0
 51
11.5466905459227
  0
ARC
  5
261
330
1F
100
AcDbEntity
  8
Sichtbare_Kanten_TC_020513_DIN_
  6
Continuous
 62
     7
100
AcDbCircle
 10
151.1781382403901
 20
149.6879328474354
 30
0.0
 40
2.500000000000215
100
AcDbArc
 50
11.54669054591132
 51
90.0
  0
ARC
  5
262
330
1F
100
AcDbEntity
  8
Sichtbare_Kanten_TC_020513_DIN_
  6
Continuous
 62
     7
100
AcDbCircle
 10
54.25991349849113
 20
149.6879328474354
 30
0.0
 40
2.5
100
AcDbArc
 50
90.0
 51
168.4533094540871
  0
ARC
  5
263
330
1F
100
AcDbEntity
  8
Sichtbare_Kanten_TC_020513_DIN_
  6
Continuous
 62
     7
100
AcDbCircle
 10
48.71902586944054
 20
105.0812950156434
 30
0.0
 40
5.999999999999742
100
AcDbArc
 50
168.4533094540772
 51
180.0
  0
ARC
  5
264
330
1F
100
AcDbEntity
  8
Sichtbare_Kanten_TC_020513_DIN_
  6
Continuous
 62
     7
100
AcDbCircle
 10
169.6690258694412
 20
79.73793284743519
 30
0.0
 40
0.5500000000000114
100
AcDbArc
 50
180.0
 51
0.0
  0
ARC
  5
265
330
1F
100
AcDbEntity
  8
Sichtbare_Kanten_TC_020513_DIN_
  6
Continuous
 62
     7
100
AcDbCircle
 10
169.6690258694412
 20
87.63793284743508
 30
0.0
 40
0.5499999999998977
100
AcDbArc
 50
0.0
 51
180.0
  0
ARC
  5
266
330
1F
100
AcDbEntity
  8
Sichtbare_Kanten_TC_020513_DIN_
  6
Continuous
 62
     7
100
AcDbCircle
 10
35.76902586944073
 20
87.63793284743508
 30
0.0
 40
0.5500000000000114
100
AcDbArc
 50
0.0
 51
180.0
  0
ARC
  5
267
330
1F
100
AcDbEntity
  8
Sichtbare_Kanten_TC_020513_DIN_
  6
Continuous
 62
     7
100
AcDbCircle
 10
35.76902586944073
 20
79.73793284743519
 30
0.0
 40
0.5500000000000185
100
AcDbArc
 50
180.0
 51
0.0
  0
ARC
  5
268
330
1F
100
AcDbEntity
  8
Sichtbare_Kanten_TC_020513_DIN_
  6
Continuous
 62
     7
100
AcDbCircle
 10
105.7190258694408
 20
125.5879328474354
 30
0.0
 40
0.25
100
AcDbArc
 50
270.0
 51
90.0
  0
ARC
  5
269
330
1F
100
AcDbEntity
  8
Sichtbare_Kanten_TC_020513_DIN_
  6
Continuous
 62
     7
100
AcDbCircle
 10
105.7190258694408
 20
124.6082661252374
 30
0.0
 40
0.2500000000002642
100
AcDbArc
 50
299.9706156499551
 51
119.9706156499341
  0
ARC
  5
26A
330
1F
100
AcDbEntity
  8
Sichtbare_Kanten_TC_020513_DIN_
  6
Continuous
 62
     7
100
AcDbCircle
 10
104.7190258694408
 20
124.0315994585704
 30
0.0
 40
0.25
100
AcDbArc
 50
180.0
 51
299.9706156500706
  0
ARC
  5
26B
330
1F
100
AcDbEntity
  8
Sichtbare_Kanten_TC_020513_DIN_
  6
Continuous
 62
     7
100
AcDbCircle
 10
105.7190258694408
 20
126.5675995696324
 30
0.0
 40
0.2499999999993456
100
AcDbArc
 50
240.0293843499536
 51
60.02938435004329
  0
ARC
  5
26C
330
1F
100
AcDbEntity
  8
Sichtbare_Kanten_TC_020513_DIN_
  6
Continuous
 62
     7
100
AcDbCircle
 10
104.7190258694408
 20
127.1442662362994
 30
0.0
 40
0.2500000000002519
100
AcDbArc
 50
60.02938435004329
 51
180.0
  0
ARC
  5
26D
330
1F
100
AcDbEntity
  8
Sichtbare_Kanten_TC_020513_DIN_
  6
Continuous
 62
     7
100
AcDbCircle
 10
99.71902586944077
 20
126.5779328474354
 30
0.0
 40
0.25
100
AcDbArc
 50
0.0
 51
180.0
  0
ARC
  5
26E
330
1F
100
AcDbEntity
  8
Sichtbare_Kanten_TC_020513_DIN_
  6
Continuous
 62
     7
100
AcDbCircle
 10
99.71902586944077
 20
124.5979328474354
 30
0.0
 40
0.25
100
AcDbArc
 50
180.0
 51
0.0
  0
ARC
  5
26F
330
1F
100
AcDbEntity
  8
Sichtbare_Kanten_TC_020513_DIN_
  6
Continuous
 62
     7
100
AcDbCircle
 10
102.7190258694408
 20
122.8782661252374
 30
0.0
 40
0.2500000000003068
100
AcDbArc
 50
240.029384350028
 51
60.02938435004329
  0
ARC
  5
270
330
1F
100
AcDbEntity
  8
Sichtbare_Kanten_TC_020513_DIN_
  6
Continuous
 62
     7
100
AcDbCircle
 10
100.7190258694408
 20
124.0315994585704
 30
0.0
 40
0.25
100
AcDbArc
 50
180.0
 51
240.029384349952
  0
ARC
  5
271
330
1F
100
AcDbEntity
  8
Sichtbare_Kanten_TC_020513_DIN_
  6
Continuous
 62
     7
100
AcDbCircle
 10
100.7190258694408
 20
127.1442662362994
 30
0.0
 40
0.25
100
AcDbArc
 50
0.0
 51
180.0
  0
ARC
  5
272
330
1F
100
AcDbEntity
  8
Sichtbare_Kanten_TC_020513_DIN_
  6
Continuous
 62
     7
100
AcDbCircle
 10
103.7190258694408
 20
127.7209329029664
 30
0.0
 40
0.25
100
AcDbArc
 50
0.0
 51
143.2566048623026
  0
ARC
  5
273
330
1F
100
AcDbEntity
  8
Sichtbare_Kanten_TC_020513_DIN_
  6
Continuous
 62
     7
100
AcDbCircle
 10
103.7190258694408
 20
123.4549327919044
 30
0.0
 40
0.25
100
AcDbArc
 50
180.0
 51
0.0
  0
ARC
  5
274
330
1F
100
AcDbEntity
  8
Sichtbare_Kanten_TC_020513_DIN_
  6
Continuous
 62
     7
100
AcDbCircle
 10
101.7190258694408
 20
127.7209329029664
 30
0.0
 40
0.2499999999995479
100
AcDbArc
 50
36.74339513769738
 51
180.0
  0
ARC
  5
275
330
1F
100
AcDbEntity
  8
Sichtbare_Kanten_TC_020513_DIN_
  6
Continuous
 62
     7
100
AcDbCircle
 10
101.7190258694408
 20
124.5979328474354
 30
0.0
 40
0.25
100
AcDbArc
 50
180.0
 51
0.0
  0
ARC
  5
276
330
1F
100
AcDbEntity
  8
Sichtbare_Kanten_TC_020513_DIN_
  6
Continuous
 62
     7
100
AcDbCircle
 10
224.2054879305902
 20
149.6879328474354
 30
0.0
 40
2.5
100
AcDbArc
 50
89.99999999977072
 51
180.0
  0
ARC
  5
277
330
1F
100
AcDbEntity
  8
Sichtbare_Kanten_TC_020513_DIN_
  6
Continuous
 62
     7
100
AcDbCircle
 10
262.2054879305902
 20
149.6879328474354
 30
0.0
 40
2.5
100
AcDbArc
 50
0.0
 51
89.99999999977072
  0
CIRCLE
  5
278
330
1F
100
AcDbEntity
  8
Sichtbare_Kanten_TC_020513_DIN_
  6
Continuous
 62
     7
100
AcDbCircle
 10
243.2054879305831
 20
83.68793284743509
 30
0.0
 40
4.5
  0
SPLINE
  5
279
330
1F
100
AcDbEntity
  8
Sichtbare_Kanten_TC_020513_DIN_
  6
Continuous
 62
     7
100
AcDbSpline
210
0.0
220
0.0
230
1.0
 70
     8
 71
     3
 72
    11
 73
     7
 74
     5
 42
0.000000001
 43
0.0000000001
 44
0.00000001
 40
0.0
 40
0.0
 40
0.0
 40
0.0
 40
1.030741284248491
 40
2.061395578296423
 40
2.725494114567927
 40
3.388713160738817
 40
3.388713160738817
 40
3.388713160738817
 40
3.388713160738817
 10
155.0628310435911
 20
113.1879328474354
 30
0.0
 10
155.4069739100586
 20
113.2041455935826
 30
0.0
 10
156.0952305971836
 20
113.2365697327501
 30
0.0
 10
156.9763955400097
 20
113.4875445819927
 30
0.0
 10
157.6955167119522
 20
113.8118128716587
 30
0.0
 10
158.0610285576452
 20
114.0626149124659
 30
0.0
 10
158.2436633811901
 20
114.1879328474354
 30
0.0
 11
155.0628310435911
 21
113.1879328474354
 31
0.0
 11
156.0898097088627
 21
113.2759238499811
 31
0.0
 11
157.0834155978992
 21
113.54977712272
 31
0.0
 11
157.6859503929532
 21
113.8290237676004
 31
0.0
 11
158.2436633811901
 21
114.1879328474354
 31
0.0
  0
SPLINE
  5
27A
330
1F
100
AcDbEntity
  8
Sichtbare_Kanten_TC_020513_DIN_
  6
Continuous
 62
     7
100
AcDbSpline
210
0.0
220
0.0
230
1.0
 70
     8
 71
     3
 72
    11
 73
     7
 74
     5
 42
0.000000001
 43
0.0000000001
 44
0.00000001
 40
0.0
 40
0.0
 40
0.0
 40
0.0
 40
0.9872250628826313
 40
1.974556800308546
 40
2.68182093554392
 40
3.388510058827026
 40
3.388510058827026
 40
3.388510058827026
 40
3.388510058827026
 10
47.19438835769142
 20
114.1879328474354
 30
0.0
 10
47.4704631998251
 20
114.0065821905826
 30
0.0
 10
48.02264272286667
 20
113.6438612941729
 30
0.0
 10
48.87922702632171
 20
113.3594100014431
 30
0.0
 10
49.66764123860987
 20
113.2107958562797
 30
0.0
 10
50.13942482944439
 20
113.1955517790494
 30
0.0
 10
50.37522069529075
 20
113.1879328474354
 30
0.0
 11
47.19438835769142
 21
114.1879328474354
 31
0.0
 11
48.0422362154025
 21
113.6821983948452
 31
0.0
 11
48.97381653558067
 21
113.3551172573508
 31
0.0
 11
49.66971659828896
 21
113.2288411249889
 31
0.0
 11
50.37522069529075
 21
113.1879328474354
 31
0.0
  0
SPLINE
  5
27B
330
1F
100
AcDbEntity
  8
Sichtbare_Kanten_TC_020513_DIN_
  6
Continuous
 62
     7
100
AcDbSpline
210
0.0
220
0.0
230
1.0
 70
     8
 71
     3
 72
    11
 73
     7
 74
     5
 42
0.000000001
 43
0.0000000001
 44
0.00000001
 40
0.0
 40
0.0
 40
0.0
 40
0.0
 40
1.141923194638888
 40
2.283805099449929
 40
3.024873255713862
 40
3.765267276829699
 40
3.765267276829699
 40
3.765267276829699
 40
3.765267276829699
 10
151.9103300478571
 20
145.1879328474354
 30
0.0
 10
151.5721491392014
 20
145.3641938563659
 30
0.0
 10
150.8957995434765
 20
145.7167094870743
 30
0.0
 10
149.9246944156611
 20
146.0080005369953
 30
0.0
 10
149.0620179319186
 20
146.1626960253874
 30
0.0
 10
148.5678613959172
 20
146.1795231306786
 30
0.0
 10
148.3208955597191
 20
146.1879328474354
 30
0.0
 11
151.9103300478571
 21
145.1879328474354
 31
0.0
 11
150.8815760418592
 21
145.6835675697706
 31
0.0
 11
149.7906116288577
 21
146.0207484375197
 31
0.0
 11
149.0600487901843
 21
146.1450864962025
 31
0.0
 11
148.3208955597191
 21
146.1879328474354
 31
0.0
  0
SPLINE
  5
27C
330
1F
100
AcDbEntity
  8
Sichtbare_Kanten_TC_020513_DIN_
  6
Continuous
 62
     7
100
AcDbSpline
210
0.0
220
0.0
230
1.0
 70
     8
 71
     3
 72
    11
 73
     7
 74
     5
 42
0.000000001
 43
0.0000000001
 44
0.00000001
 40
0.0
 40
0.0
 40
0.0
 40
0.0
 40
1.102696566324262
 40
2.205478074010157
 40
2.985551271960814
 40
3.765139402737367
 40
3.765139402737367
 40
3.765139402737367
 40
3.765139402737367
 10
57.11715617916173
 20
146.1879328474354
 30
0.0
 10
56.7491762497591
 20
146.169308526165
 30
0.0
 10
56.01318804675938
 20
146.1320584338579
 30
0.0
 10
55.04532839090989
 20
145.8754246195082
 30
0.0
 10
54.21522772217338
 20
145.557541891546
 30
0.0
 10
53.75684284540616
 20
145.31111031913
 30
0.0
 10
53.52772169102474
 20
145.1879328474354
 30
0.0
 11
57.11715617916173
 21
146.1879328474354
 31
0.0
 11
56.01846939356712
 21
146.0939803816714
 31
0.0
 11
54.94872127581244
 21
145.8260885721504
 31
0.0
 11
54.22205302490114
 21
145.5424207223577
 31
0.0
 11
53.52772169102474
 21
145.1879328474354
 31
0.0
  0
LWPOLYLINE
  5
27D
330
1F
100
AcDbEntity
  8
Sichtbare_Kanten_TC_020513_DIN_
  6
Continuous
 62
     7
100
AcDbPolyline
 90
       43
 70
     0
 43
0.0
 10
112.7813317967172
 20
152.1879318937604
 10
112.3049804163691
 20
152.1761540159534
 10
111.8218513918631
 20
152.1435002073594
 10
111.3330861521482
 20
152.0934799894644
 10
110.8385023070092
 20
152.0289257749864
 10
110.3389766407722
 20
151.9522074446034
 10
109.8357703877211
 20
151.8657044157334
 10
109.3303903532741
 20
151.7718008741684
 10
108.8250174713851
 20
151.6727856382674
 10
108.3202781868691
 20
151.5705851301494
 10
107.8165998650312
 20
151.4671210035634
 10
107.3144077850101
 20
151.3642910703964
 10
106.8141284180401
 20
151.2640122160264
 10
106.3161876393077
 20
151.1681965574574
 10
105.8210116220233
 20
151.0787419065784
 10
105.329026539397
 20
150.9975699171374
 10
104.8376628351924
 20
150.9262398466414
 10
104.3438675595043
 20
150.8664396986314
 10
103.8472108883378
 20
150.8202389463734
 10
103.3480385286329
 20
150.7896784529044
 10
102.8478008010951
 20
150.7762316450424
 10
102.3472805661676
 20
150.7805613264394
 10
101.8475995553253
 20
150.8024386152574
 10
101.3491519881007
 20
150.8408383116074
 10
100.8532279325244
 20
150.8939913496324
 10
100.3598950398682
 20
150.9597948774644
 10
99.86862178571192
 20
151.0361078962634
 10
99.3784161997554
 20
151.1207989439314
 10
98.88909902102921
 20
151.2120512708974
 10
98.40059186942551
 20
151.3080862745594
 10
97.91281725890616
 20
151.4071253523174
 10
97.42569710738633
 20
151.5073755964584
 10
96.93915452487443
 20
151.6070631727524
 10
96.45861889846293
 20
151.7033699735944
 10
95.99075998790232
 20
151.7937544569324
 10
95.53535487182114
 20
151.8772534117054
 10
95.09216095931504
 20
151.9529036268544
 10
94.66093565947983
 20
152.0197418913194
 10
94.24143697745774
 20
152.0768097624134
 10
93.83342172629807
 20
152.1231440290754
 10
93.43609835631821
 20
152.1578243955914
 10
93.04399635322062
 20
152.1800354704204
 10
92.65671994216416
 20
152.1879318937604
  0
DIMENSION
  5
289
330
1F
100
AcDbEntity
  8
Bemaßungen_TC_020513_DIN_
100
AcDbDimension
  2
*D3
 10
42.71902586944073
 20
66.18793284743509
 30
0.0
 11
102.7190258694409
 21
68.40708707629081
 31
0.0
 70
    32
  1
120
 71
     5
 42
-1.0
 53
0.00013888888889
  3
ME10_DIM_10
100
AcDbAlignedDimension
 13
162.7190258694411
 23
76.18793284743509
 33
0.0
 14
42.71902586944077
 24
76.18793284743509
 34
0.0
100
AcDbRotatedDimension
  0
DIMENSION
  5
294
330
1F
100
AcDbEntity
  8
Bemaßungen_TC_020513_DIN_
100
AcDbDimension
  2
*D4
 10
35.2190258694407
 20
56.18793284743509
 30
0.0
 11
102.7190258694409
 21
58.40708707629081
 31
0.0
 70
    32
  1
135
 71
     5
 42
-1.0
 53
0.00013888888889
  3
ME10_DIM_11
100
AcDbAlignedDimension
 13
170.2190258694411
 23
83.68793284743509
 33
0.0
 14
35.21902586944071
 24
83.68793284743509
 34
0.0
100
AcDbRotatedDimension
  0
DIMENSION
  5
29F
330
1F
100
AcDbEntity
  8
Bemaßungen_TC_020513_DIN_
100
AcDbDimension
  2
*D5
 10
221.7054879305872
 20
66.18793284743509
 30
0.0
 11
243.2054879305872
 21
68.40708707629081
 31
0.0
 70
    32
  1
43
 71
     5
 42
-1.0
 53
0.00013888888889
  3
ME10_DIM_12
100
AcDbAlignedDimension
 13
264.7054879305872
 23
82.31293284743509
 33
0.0
 14
221.7054879305872
 24
82.31293284743509
 34
0.0
100
AcDbRotatedDimension
  0
DIMENSION
  5
2AA
330
1F
100
AcDbEntity
  8
Bemaßungen_TC_020513_DIN_
100
AcDbDimension
  2
*D6
 10
180.2190258694411
 20
76.18793284743496
 30
0.0
 11
177.9998716405854
 21
114.1879328474352
 31
0.0
 70
    32
  1
76
 71
     5
 42
-1.0
 53
90.0
  3
ME10_DIM_13
100
AcDbAlignedDimension
 13
147.6058417962792
 23
152.1879328474354
 33
0.0
 14
156.7190258694411
 24
76.18793284743509
 34
0.0
 50
90.0
100
AcDbRotatedDimension
  0
DIMENSION
  5
2B5
330
1F
100
AcDbEntity
  8
Bemaßungen_TC_020513_DIN_
100
AcDbDimension
  2
*D7
 10
190.2190258694411
 20
167.1879328474353
 30
0.0
 11
187.9998716405854
 21
121.6879328474352
 31
0.0
 70
    32
  1
91
 71
     5
 42
-1.0
 53
90.0
  3
ME10_DIM_14
100
AcDbAlignedDimension
 13
156.7190258694411
 23
76.18793284743509
 33
0.0
 14
124.2190258694411
 24
167.1879328474354
 34
0.0
 50
90.0
100
AcDbRotatedDimension
  0
DIMENSION
  5
2C0
330
1F
100
AcDbEntity
  8
Bemaßungen_TC_020513_DIN_
100
AcDbDimension
  2
*D8
 10
88.46902586944087
 20
177.1879328474354
 30
0.0
 11
102.7190258694411
 21
179.7640522504205
 31
0.0
 70
    32
  1
NPT 3/4"
 71
     5
 42
-1.0
 53
0.00013888888889
  3
ME10_DIM_15
100
AcDbAlignedDimension
 13
116.9690258694413
 23
167.1879328474354
 33
0.0
 14
88.46902586944083
 24
167.1879328474354
 34
0.0
100
AcDbRotatedDimension
  0
ENDSEC
  0
SECTION
  2
OBJECTS
  0
DICTIONARY
  5
C
330
0
100
AcDbDictionary
281
     1
  3
ACAD_GROUP
350
D
  3
ACAD_LAYOUT
350
1A
  3
ACAD_MATERIAL
350
3B
  3
ACAD_MLEADERSTYLE
350
2C3
  3
ACAD_MLINESTYLE
350
17
  3
ACAD_PLOTSETTINGS
350
19
  3
ACAD_PLOTSTYLENAME
350
E
  3
ACAD_VISUALSTYLE
350
2A
  3
AcDbVariableDictionary
350
2C1
  0
DICTIONARY
  5
D
102
{ACAD_REACTORS
330
C
102
}
330
C
100
AcDbDictionary
281
     1
  0
DICTIONARY
  5
1A
102
{ACAD_REACTORS
330
C
102
}
330
C
100
AcDbDictionary
281
     1
  3
Layout1
350
1E
  3
Layout2
350
26
  3
Model
350
22
  0
DICTIONARY
  5
3B
102
{ACAD_REACTORS
330
C
102
}
330
C
100
AcDbDictionary
281
     1
  3
ByBlock
350
3D
  3
ByLayer
350
3C
  3
Global
350
3E
  0
DICTIONARY
  5
2C3
102
{ACAD_REACTORS
330
C
102
}
330
C
100
AcDbDictionary
281
     1
  0
DICTIONARY
  5
17
102
{ACAD_REACTORS
330
C
102
}
330
C
100
AcDbDictionary
281
     1
  3
Standard
350
18
  0
DICTIONARY
  5
19
102
{ACAD_REACTORS
330
C
102
}
330
C
100
AcDbDictionary
281
     1
  0
ACDBDICTIONARYWDFLT
  5
E
102
{ACAD_REACTORS
330
C
102
}
330
C
100
AcDbDictionary
281
     1
  3
Normal
350
F
100
AcDbDictionaryWithDefault
340
F
  0
DICTIONARY
  5
2A
102
{ACAD_REACTORS
330
C
102
}
330
C
100
AcDbDictionary
281
     1
  3
2dWireframe
350
2F
  3
3D Hidden
350
31
  3
3dWireframe
350
30
  3
Basic
350
32
  3
Brighten
350
36
  3
ColorChange
350
3A
  3
Conceptual
350
34
  3
Dim
350
35
  3
Facepattern
350
39
  3
Flat
350
2B
  3
FlatWithEdges
350
2C
  3
Gouraud
350
2D
  3
GouraudWithEdges
350
2E
  3
Linepattern
350
38
  3
Realistic
350
33
  3
Thicken
350
37
  0
DICTIONARY
  5
2C1
102
{ACAD_REACTORS
330
C
102
}
330
C
100
AcDbDictionary
281
     1
  3
DIMASSOC
350
2C4
  3
HIDETEXT
350
2C5
  0
LAYOUT
  5
1E
102
{ACAD_REACTORS
330
1A
102
}
330
1A
100
AcDbPlotSettings
  1

  2
none_device
  4

  6

 40
0.0
 41
0.0
 42
0.0
 43
0.0
 44
0.0
 45
0.0
 46
0.0
 47
0.0
 48
0.0
 49
0.0
140
0.0
141
0.0
142
1.0
143
1.0
 70
   688
 72
     0
 73
     0
 74
     5
  7

 75
    16
147
1.0
148
0.0
149
0.0
100
AcDbLayout
  1
Layout1
 70
     1
 71
     1
 10
0.0
 20
0.0
 11
12.0
 21
9.0
 12
0.0
 22
0.0
 32
0.0
 14
1.00000000000000E+20
 24
1.00000000000000E+20
 34
1.00000000000000E+20
 15
-1.00000000000000E+20
 25
-1.00000000000000E+20
 35
-1.00000000000000E+20
146
0.0
 13
0.0
 23
0.0
 33
0.0
 16
1.0
 26
0.0
 36
0.0
 17
0.0
 27
1.0
 37
0.0
 76
     0
330
1B
  0
LAYOUT
  5
26
102
{ACAD_REACTORS
330
1A
102
}
330
1A
100
AcDbPlotSettings
  1

  2
none_device
  4

  6

 40
0.0
 41
0.0
 42
0.0
 43
0.0
 44
0.0
 45
0.0
 46
0.0
 47
0.0
 48
0.0
 49
0.0
140
0.0
141
0.0
142
1.0
143
1.0
 70
   688
 72
     0
 73
     0
 74
     5
  7

 75
    16
147
1.0
148
0.0
149
0.0
100
AcDbLayout
  1
Layout2
 70
     1
 71
     2
 10
0.0
 20
0.0
 11
0.0
 21
0.0
 12
0.0
 22
0.0
 32
0.0
 14
0.0
 24
0.0
 34
0.0
 15
0.0
 25
0.0
 35
0.0
146
0.0
 13
0.0
 23
0.0
 33
0.0
 16
1.0
 26
0.0
 36
0.0
 17
0.0
 27
1.0
 37
0.0
 76
     0
330
23
  0
LAYOUT
  5
22
102
{ACAD_REACTORS
330
1A
102
}
330
1A
100
AcDbPlotSettings
  1

  2
none_device
  4

  6

 40
0.0
 41
0.0
 42
0.0
 43
0.0
 44
0.0
 45
0.0
 46
0.0
 47
0.0
 48
0.0
 49
0.0
140
0.0
141
0.0
142
1.0
143
1.0
 70
  1712
 72
     0
 73
     0
 74
     0
  7

 75
     0
147
1.0
148
0.0
149
0.0
100
AcDbLayout
  1
Model
 70
     1
 71
     0
 10
0.0
 20
0.0
 11
12.0
 21
9.0
 12
0.0
 22
0.0
 32
0.0
 14
0.0
 24
0.0
 34
0.0
 15
297.0000000000001
 25
210.0000000000001
 35
0.0
146
0.0
 13
0.0
 23
0.0
 33
0.0
 16
1.0
 26
0.0
 36
0.0
 17
0.0
 27
1.0
 37
0.0
 76
     0
330
1F
331
29
  0
MATERIAL
  5
3D
102
{ACAD_REACTORS
330
3B
102
}
102
{ACAD_XDICTIONARY
360
2E8
102
}
330
3B
100
AcDbMaterial
  1
ByBlock
  0
MATERIAL
  5
3C
102
{ACAD_REACTORS
330
3B
102
}
102
{ACAD_XDICTIONARY
360
2E6
102
}
330
3B
100
AcDbMaterial
  1
ByLayer
  0
MATERIAL
  5
3E
102
{ACAD_REACTORS
330
3B
102
}
102
{ACAD_XDICTIONARY
360
2EA
102
}
330
3B
100
AcDbMaterial
  1
Global
  0
MLINESTYLE
  5
18
102
{ACAD_REACTORS
330
17
102
}
330
17
100
AcDbMlineStyle
  2
Standard
 70
     0
  3

 62
   256
 51
90.0
 52
90.0
 71
     2
 49
0.5
 62
   256
  6
BYLAYER
 49
-0.5
 62
   256
  6
BYLAYER
  0
ACDBPLACEHOLDER
  5
F
102
{ACAD_REACTORS
330
E
102
}
330
E
  0
VISUALSTYLE
  5
2F
102
{ACAD_REACTORS
330
2A
102
}
102
{ACAD_XDICTIONARY
360
2CE
102
}
330
2A
100
AcDbVisualStyle
  2
2dWireframe
 70
     4
 71
     0
 72
     2
 73
     0
 90
        0
 40
-0.6
 41
-30.0
 62
     5
 63
     7
 74
     1
 91
        4
 64
     7
 65
   257
 75
     1
175
     1
 42
1.0
 92
        0
 66
   257
 43
1.0
 76
     1
 77
     6
 78
     2
 67
     7
 79
     5
170
     0
171
     0
290
     0
174
     0
 93
        1
 44
0.0
173
     0
291
     0
 45
0.0
1001
ACAD
1000
AcDbSavedByObjectVersion
1070
     0
  0
VISUALSTYLE
  5
31
102
{ACAD_REACTORS
330
2A
102
}
102
{ACAD_XDICTIONARY
360
2D2
102
}
330
2A
100
AcDbVisualStyle
  2
3D Hidden
 70
     6
 71
     1
 72
     2
 73
     2
 90
        0
 40
-0.6
 41
-30.0
 62
     5
 63
     7
 74
     2
 91
        2
 64
     7
 65
   257
 75
     2
175
     1
 42
40.0
 92
        0
 66
   257
 43
1.0
 76
     1
 77
     6
 78
     2
 67
     7
 79
     3
170
     0
171
     0
290
     0
174
     0
 93
        1
 44
0.0
173
     0
291
     0
 45
0.0
1001
ACAD
1000
AcDbSavedByObjectVersion
1070
     0
  0
VISUALSTYLE
  5
30
102
{ACAD_REACTORS
330
2A
102
}
102
{ACAD_XDICTIONARY
360
2D0
102
}
330
2A
100
AcDbVisualStyle
  2
3dWireframe
 70
     5
 71
     0
 72
     2
 73
     0
 90
        0
 40
-0.6
 41
-30.0
 62
     5
 63
     7
 74
     1
 91
        4
 64
     7
 65
   257
 75
     1
175
     1
 42
1.0
 92
        0
 66
   257
 43
1.0
 76
     1
 77
     6
 78
     2
 67
     7
 79
     5
170
     0
171
     0
290
     0
174
     0
 93
        1
 44
0.0
173
     0
291
     0
 45
0.0
1001
ACAD
1000
AcDbSavedByObjectVersion
1070
     0
  0
VISUALSTYLE
  5
32
102
{ACAD_REACTORS
330
2A
102
}
102
{ACAD_XDICTIONARY
360
2D4
102
}
330
2A
100
AcDbVisualStyle
  2
Basic
 70
     7
 71
     1
 72
     0
 73
     1
 90
        0
 40
-0.6
 41
-30.0
 62
     5
 63
     7
 74
     0
 91
        4
 64
     7
 65
   257
 75
     1
175
     1
 42
1.0
 92
        8
 66
     7
 43
1.0
 76
     1
 77
     6
 78
     2
 67
     7
 79
     5
170
     0
171
     0
290
     0
174
     0
 93
        1
 44
0.0
173
     0
291
     1
 45
0.0
1001
ACAD
1000
AcDbSavedByObjectVersion
1070
     0
  0
VISUALSTYLE
  5
36
102
{ACAD_REACTORS
330
2A
102
}
102
{ACAD_XDICTIONARY
360
2DC
102
}
330
2A
100
AcDbVisualStyle
  2
Brighten
 70
    12
 71
     2
 72
     2
 73
     0
 90
        0
 40
-0.6
 41
-30.0
 62
     5
 63
     7
 74
     1
 91
        4
 64
     7
 65
   257
 75
     1
175
     1
 42
1.0
 92
        8
 66
     7
 43
1.0
 76
     1
 77
     6
 78
     2
 67
     7
 79
     5
170
     0
171
     0
290
     0
174
     0
 93
        1
 44
50.0
173
     0
291
     1
 45
0.0
1001
ACAD
1000
AcDbSavedByObjectVersion
1070
     0
  0
VISUALSTYLE
  5
3A
102
{ACAD_REACTORS
330
2A
102
}
102
{ACAD_XDICTIONARY
360
2E4
102
}
330
2A
100
AcDbVisualStyle
  2
ColorChange
 70
    16
 71
     2
 72
     2
 73
     3
 90
        0
 40
-0.6
 41
-30.0
 62
     5
 63
     8
 74
     1
 91
        4
 64
     7
 65
   257
 75
     1
175
     1
 42
1.0
 92
        8
 66
     8
 43
1.0
 76
     1
 77
     6
 78
     2
 67
     7
 79
     5
170
     0
171
     0
290
     0
174
     0
 93
        1
 44
0.0
173
     0
291
     1
 45
0.0
1001
ACAD
1000
AcDbSavedByObjectVersion
1070
     0
  0
VISUALSTYLE
  5
34
102
{ACAD_REACTORS
330
2A
102
}
102
{ACAD_XDICTIONARY
360
2D8
102
}
330
2A
100
AcDbVisualStyle
  2
Conceptual
 70
     9
 71
     3
 72
     2
 73
     0
 90
        0
 40
-0.6
 41
-30.0
 62
     5
 63
     7
 74
     2
 91
        2
 64
     7
 65
   257
 75
     1
175
     1
 42
40.0
 92
        8
 66
     7
 43
1.0
 76
     1
 77
     6
 78
     2
 67
     7
 79
     3
170
     0
171
     0
290
     0
174
     0
 93
        1
 44
0.0
173
     0
291
     0
 45
0.0
1001
ACAD
1000
AcDbSavedByObjectVersion
1070
     0
  0
VISUALSTYLE
  5
35
102
{ACAD_REACTORS
330
2A
102
}
102
{ACAD_XDICTIONARY
360
2DA
102
}
330
2A
100
AcDbVisualStyle
  2
Dim
 70
    11
 71
     2
 72
     2
 73
     0
 90
        0
 40
-0.6
 41
-30.0
 62
     5
 63
     7
 74
     1
 91
        4
 64
     7
 65
   257
 75
     1
175
     1
 42
1.0
 92
        8
 66
     7
 43
1.0
 76
     1
 77
     6
 78
     2
 67
     7
 79
     5
170
     0
171
     0
290
     0
174
     0
 93
        1
 44
-50.0
173
     0
291
     1
 45
0.0
1001
ACAD
1000
AcDbSavedByObjectVersion
1070
     0
  0
VISUALSTYLE
  5
39
102
{ACAD_REACTORS
330
2A
102
}
102
{ACAD_XDICTIONARY
360
2E2
102
}
330
2A
100
AcDbVisualStyle
  2
Facepattern
 70
    15
 71
     2
 72
     2
 73
     0
 90
        0
 40
-0.6
 41
-30.0
 62
     5
 63
     7
 74
     1
 91
        4
 64
     7
 65
   257
 75
     1
175
     1
 42
1.0
 92
        8
 66
     7
 43
1.0
 76
     1
 77
     6
 78
     2
 67
     7
 79
     5
170
     0
171
     0
290
     0
174
     0
 93
        1
 44
0.0
173
     0
291
     1
 45
0.0
1001
ACAD
1000
AcDbSavedByObjectVersion
1070
     0
  0
VISUALSTYLE
  5
2B
102
{ACAD_REACTORS
330
2A
102
}
102
{ACAD_XDICTIONARY
360
2C6
102
}
330
2A
100
AcDbVisualStyle
  2
Flat
 70
     0
 71
     2
 72
     1
 73
     1
 90
        2
 40
-0.6
 41
30.0
 62
     5
 63
     7
 74
     0
 91
        4
 64
     7
 65
   257
 75
     1
175
     1
 42
1.0
 92
        8
 66
     7
 43
1.0
 76
     1
 77
     6
 78
     2
 67
     7
 79
     5
170
     0
171
     0
290
     0
174
     0
 93
       13
 44
0.0
173
     0
291
     1
 45
0.0
1001
ACAD
1000
AcDbSavedByObjectVersion
1070
     0
  0
VISUALSTYLE
  5
2C
102
{ACAD_REACTORS
330
2A
102
}
102
{ACAD_XDICTIONARY
360
2C8
102
}
330
2A
100
AcDbVisualStyle
  2
FlatWithEdges
 70
     1
 71
     2
 72
     1
 73
     1
 90
        2
 40
-0.6
 41
30.0
 62
     5
 63
     7
 74
     1
 91
        4
 64
     7
 65
   257
 75
     1
175
     1
 42
1.0
 92
        0
 66
   257
 43
1.0
 76
     1
 77
     6
 78
     2
 67
     7
 79
     5
170
     0
171
     0
290
     0
174
     0
 93
       13
 44
0.0
173
     0
291
     1
 45
0.0
1001
ACAD
1000
AcDbSavedByObjectVersion
1070
     0
  0
VISUALSTYLE
  5
2D
102
{ACAD_REACTORS
330
2A
102
}
102
{ACAD_XDICTIONARY
360
2CA
102
}
330
2A
100
AcDbVisualStyle
  2
Gouraud
 70
     2
 71
     2
 72
     2
 73
     1
 90
        2
 40
-0.6
 41
30.0
 62
     5
 63
     7
 74
     0
 91
        4
 64
     7
 65
   257
 75
     1
175
     1
 42
1.0
 92
        0
 66
     7
 43
1.0
 76
     1
 77
     6
 78
     2
 67
     7
 79
     5
170
     0
171
     0
290
     0
174
     0
 93
       13
 44
0.0
173
     0
291
     1
 45
0.0
1001
ACAD
1000
AcDbSavedByObjectVersion
1070
     0
  0
VISUALSTYLE
  5
2E
102
{ACAD_REACTORS
330
2A
102
}
102
{ACAD_XDICTIONARY
360
2CC
102
}
330
2A
100
AcDbVisualStyle
  2
GouraudWithEdges
 70
     3
 71
     2
 72
     2
 73
     1
 90
        2
 40
-0.6
 41
30.0
 62
     5
 63
     7
 74
     1
 91
        4
 64
     7
 65
   257
 75
     1
175
     1
 42
1.0
 92
        0
 66
   257
 43
1.0
 76
     1
 77
     6
 78
     2
 67
     7
 79
     5
170
     0
171
     0
290
     0
174
     0
 93
       13
 44
0.0
173
     0
291
     1
 45
0.0
1001
ACAD
1000
AcDbSavedByObjectVersion
1070
     0
  0
VISUALSTYLE
  5
38
102
{ACAD_REACTORS
330
2A
102
}
102
{ACAD_XDICTIONARY
360
2E0
102
}
330
2A
100
AcDbVisualStyle
  2
Linepattern
 70
    14
 71
     2
 72
     2
 73
     0
 90
        0
 40
-0.6
 41
-30.0
 62
     5
 63
     7
 74
     1
 91
        4
 64
     7
 65
   257
 75
     7
175
     7
 42
1.0
 92
        8
 66
     7
 43
1.0
 76
     1
 77
     6
 78
     2
 67
     7
 79
     5
170
     0
171
     0
290
     0
174
     0
 93
        1
 44
0.0
173
     0
291
     1
 45
0.0
1001
ACAD
1000
AcDbSavedByObjectVersion
1070
     0
  0
VISUALSTYLE
  5
33
102
{ACAD_REACTORS
330
2A
102
}
102
{ACAD_XDICTIONARY
360
2D6
102
}
330
2A
100
AcDbVisualStyle
  2
Realistic
 70
     8
 71
     2
 72
     2
 73
     0
 90
        0
 40
-0.6
 41
-30.0
 62
     5
 63
     7
 74
     1
 91
        0
 64
     7
 65
   257
 75
     1
175
     1
 42
1.0
 92
        8
 66
     8
 43
1.0
 76
     1
 77
     6
 78
     2
 67
     7
 79
     5
170
     0
171
     0
290
     0
174
     0
 93
       13
 44
0.0
173
     0
291
     0
 45
0.0
1001
ACAD
1000
AcDbSavedByObjectVersion
1070
     0
  0
VISUALSTYLE
  5
37
102
{ACAD_REACTORS
330
2A
102
}
102
{ACAD_XDICTIONARY
360
2DE
102
}
330
2A
100
AcDbVisualStyle
  2
Thicken
 70
    13
 71
     2
 72
     2
 73
     0
 90
        0
 40
-0.6
 41
-30.0
 62
     5
 63
     7
 74
     1
 91
        4
 64
     7
 65
   257
 75
     1
175
     1
 42
1.0
 92
       12
 66
     7
 43
1.0
 76
     1
 77
     6
 78
     2
 67
     7
 79
     5
170
     0
171
     0
290
     0
174
     0
 93
        1
 44
0.0
173
     0
291
     1
 45
0.0
1001
ACAD
1000
AcDbSavedByObjectVersion
1070
     0
  0
DICTIONARYVAR
  5
2C4
102
{ACAD_REACTORS
330
2C1
102
}
330
2C1
100
DictionaryVariables
280
     0
  1
2
  0
DICTIONARYVAR
  5
2C5
102
{ACAD_REACTORS
330
2C1
102
}
330
2C1
100
DictionaryVariables
280
     0
  1
1
  0
DICTIONARY
  5
2E8
330
3D
100
AcDbDictionary
280
     1
281
     1
  3
ACAD_XREC_ROUNDTRIP
360
2E9
  0
DICTIONARY
  5
2E6
330
3C
100
AcDbDictionary
280
     1
281
     1
  3
ACAD_XREC_ROUNDTRIP
360
2E7
  0
DICTIONARY
  5
2EA
330
3E
100
AcDbDictionary
280
     1
281
     1
  3
ACAD_XREC_ROUNDTRIP
360
2EB
  0
DICTIONARY
  5
2CE
330
2F
100
AcDbDictionary
280
     1
281
     1
  3
ACAD_XREC_ROUNDTRIP
360
2CF
  0
DICTIONARY
  5
2D2
330
31
100
AcDbDictionary
280
     1
281
     1
  3
ACAD_XREC_ROUNDTRIP
360
2D3
  0
DICTIONARY
  5
2D0
330
30
100
AcDbDictionary
280
     1
281
     1
  3
ACAD_XREC_ROUNDTRIP
360
2D1
  0
DICTIONARY
  5
2D4
330
32
100
AcDbDictionary
280
     1
281
     1
  3
ACAD_XREC_ROUNDTRIP
360
2D5
  0
DICTIONARY
  5
2DC
330
36
100
AcDbDictionary
280
     1
281
     1
  3
ACAD_XREC_ROUNDTRIP
360
2DD
  0
DICTIONARY
  5
2E4
330
3A
100
AcDbDictionary
280
     1
281
     1
  3
ACAD_XREC_ROUNDTRIP
360
2E5
  0
DICTIONARY
  5
2D8
330
34
100
AcDbDictionary
280
     1
281
     1
  3
ACAD_XREC_ROUNDTRIP
360
2D9
  0
DICTIONARY
  5
2DA
330
35
100
AcDbDictionary
280
     1
281
     1
  3
ACAD_XREC_ROUNDTRIP
360
2DB
  0
DICTIONARY
  5
2E2
330
39
100
AcDbDictionary
280
     1
281
     1
  3
ACAD_XREC_ROUNDTRIP
360
2E3
  0
DICTIONARY
  5
2C6
330
2B
100
AcDbDictionary
280
     1
281
     1
  3
ACAD_XREC_ROUNDTRIP
360
2C7
  0
DICTIONARY
  5
2C8
330
2C
100
AcDbDictionary
280
     1
281
     1
  3
ACAD_XREC_ROUNDTRIP
360
2C9
  0
DICTIONARY
  5
2CA
330
2D
100
AcDbDictionary
280
     1
281
     1
  3
ACAD_XREC_ROUNDTRIP
360
2CB
  0
DICTIONARY
  5
2CC
330
2E
100
AcDbDictionary
280
     1
281
     1
  3
ACAD_XREC_ROUNDTRIP
360
2CD
  0
DICTIONARY
  5
2E0
330
38
100
AcDbDictionary
280
     1
281
     1
  3
ACAD_XREC_ROUNDTRIP
360
2E1
  0
DICTIONARY
  5
2D6
330
33
100
AcDbDictionary
280
     1
281
     1
  3
ACAD_XREC_ROUNDTRIP
360
2D7
  0
DICTIONARY
  5
2DE
330
37
100
AcDbDictionary
280
     1
281
     1
  3
ACAD_XREC_ROUNDTRIP
360
2DF
  0
XRECORD
  5
2E9
102
{ACAD_REACTORS
330
2E8
102
}
330
2E8
100
AcDbXrecord
280
     1
102
MATERIAL
148
0.0
149
0.0
149
0.0
 93
        0
 94
      127
282
     0
 72
     1
 77
     1
171
     1
175
     1
179
     1
273
     0
  0
XRECORD
  5
2E7
102
{ACAD_REACTORS
330
2E6
102
}
330
2E6
100
AcDbXrecord
280
     1
102
MATERIAL
148
0.0
149
0.0
149
0.0
 93
        0
 94
      127
282
     0
 72
     1
 77
     1
171
     1
175
     1
179
     1
273
     0
  0
XRECORD
  5
2EB
102
{ACAD_REACTORS
330
2EA
102
}
330
2EA
100
AcDbXrecord
280
     1
102
MATERIAL
148
0.0
149
0.0
149
0.0
 93
        0
 94
      127
282
     0
 72
     1
 77
     1
171
     1
175
     1
179
     1
273
     0
  0
XRECORD
  5
2CF
102
{ACAD_REACTORS
330
2CE
102
}
330
2CE
100
AcDbXrecord
280
     1
102
RTVSPropertyOp0
 70
     1
102
RTVSPropertyOp1
 70
     1
102
RTVSPropertyOp2
 70
     1
102
RTVSPropertyOp3
 70
     1
102
RTVSPropertyOp4
 70
     1
102
RTVSPropertyOp5
 70
     1
102
RTVSPropertyOp6
 70
     1
102
RTVSPropertyOp7
 70
     1
102
RTVSPropertyOp8
 70
     1
102
RTVSPropertyOp9
 70
     1
102
RTVSPropertyOp10
 70
     1
102
RTVSPropertyOp11
 70
     1
102
RTVSPropertyOp12
 70
     1
102
RTVSPropertyOp13
 70
     1
102
RTVSPropertyOp14
 70
     1
102
RTVSPropertyOp15
 70
     1
102
RTVSPropertyOp16
 70
     1
102
RTVSPropertyOp17
 70
     1
102
RTVSPropertyOp18
 70
     1
102
RTVSPropertyOp19
 70
     1
102
RTVSPropertyOp20
 70
     1
102
RTVSPropertyOp21
 70
     1
102
RTVSPropertyOp22
 70
     1
102
RTVSPropertyOp23
 70
     1
102
RTVSPropertyOp24
 70
     1
102
RTVSPropertyOp25
 70
     1
102
RTVSPropertyOp26
 70
     1
102
RTVSPropertyOp27
 70
     1
102
RTVSPropertyOp28
 70
     1
102
RTVSPropertyOp29
 70
     1
102
RTVSPropertyOp30
 70
     1
102
RTVSPropertyOp31
 70
     1
102
RTVSPropertyOp32
 70
     1
  0
XRECORD
  5
2D3
102
{ACAD_REACTORS
330
2D2
102
}
330
2D2
100
AcDbXrecord
280
     1
102
RTVSPropertyOp0
 70
     1
102
RTVSPropertyOp1
 70
     1
102
RTVSPropertyOp2
 70
     1
102
RTVSPropertyOp3
 70
     1
102
RTVSPropertyOp4
 70
     1
102
RTVSPropertyOp5
 70
     1
102
RTVSPropertyOp6
 70
     1
102
RTVSPropertyOp7
 70
     1
102
RTVSPropertyOp8
 70
     1
102
RTVSPropertyOp9
 70
     1
102
RTVSPropertyOp10
 70
     1
102
RTVSPropertyOp11
 70
     1
102
RTVSPropertyOp12
 70
     1
102
RTVSPropertyOp13
 70
     1
102
RTVSPropertyOp14
 70
     1
102
RTVSPropertyOp15
 70
     1
102
RTVSPropertyOp16
 70
     1
102
RTVSPropertyOp17
 70
     1
102
RTVSPropertyOp18
 70
     1
102
RTVSPropertyOp19
 70
     1
102
RTVSPropertyOp20
 70
     1
102
RTVSPropertyOp21
 70
     1
102
RTVSPropertyOp22
 70
     1
102
RTVSPropertyOp23
 70
     1
102
RTVSPropertyOp24
 70
     1
102
RTVSPropertyOp25
 70
     1
102
RTVSPropertyOp26
 70
     1
102
RTVSPropertyOp27
 70
     1
102
RTVSPropertyOp28
 70
     1
102
RTVSPropertyOp29
 70
     1
102
RTVSPropertyOp30
 70
     1
102
RTVSPropertyOp31
 70
     1
102
RTVSPropertyOp32
 70
     1
  0
XRECORD
  5
2D1
102
{ACAD_REACTORS
330
2D0
102
}
330
2D0
100
AcDbXrecord
280
     1
102
RTVSPropertyOp0
 70
     1
102
RTVSPropertyOp1
 70
     1
102
RTVSPropertyOp2
 70
     1
102
RTVSPropertyOp3
 70
     1
102
RTVSPropertyOp4
 70
     1
102
RTVSPropertyOp5
 70
     1
102
RTVSPropertyOp6
 70
     1
102
RTVSPropertyOp7
 70
     1
102
RTVSPropertyOp8
 70
     1
102
RTVSPropertyOp9
 70
     1
102
RTVSPropertyOp10
 70
     1
102
RTVSPropertyOp11
 70
     1
102
RTVSPropertyOp12
 70
     1
102
RTVSPropertyOp13
 70
     1
102
RTVSPropertyOp14
 70
     1
102
RTVSPropertyOp15
 70
     1
102
RTVSPropertyOp16
 70
     1
102
RTVSPropertyOp17
 70
     1
102
RTVSPropertyOp18
 70
     1
102
RTVSPropertyOp19
 70
     1
102
RTVSPropertyOp20
 70
     1
102
RTVSPropertyOp21
 70
     1
102
RTVSPropertyOp22
 70
     1
102
RTVSPropertyOp23
 70
     1
102
RTVSPropertyOp24
 70
     1
102
RTVSPropertyOp25
 70
     1
102
RTVSPropertyOp26
 70
     1
102
RTVSPropertyOp27
 70
     1
102
RTVSPropertyOp28
 70
     1
102
RTVSPropertyOp29
 70
     1
102
RTVSPropertyOp30
 70
     1
102
RTVSPropertyOp31
 70
     1
102
RTVSPropertyOp32
 70
     1
  0
XRECORD
  5
2D5
102
{ACAD_REACTORS
330
2D4
102
}
330
2D4
100
AcDbXrecord
280
     1
102
RTVSPropertyOp0
 70
     1
102
RTVSPropertyOp1
 70
     1
102
RTVSPropertyOp2
 70
     1
102
RTVSPropertyOp3
 70
     1
102
RTVSPropertyOp4
 70
     1
102
RTVSPropertyOp5
 70
     1
102
RTVSPropertyOp6
 70
     1
102
RTVSPropertyOp7
 70
     1
102
RTVSPropertyOp8
 70
     1
102
RTVSPropertyOp9
 70
     1
102
RTVSPropertyOp10
 70
     1
102
RTVSPropertyOp11
 70
     1
102
RTVSPropertyOp12
 70
     1
102
RTVSPropertyOp13
 70
     1
102
RTVSPropertyOp14
 70
     1
102
RTVSPropertyOp15
 70
     1
102
RTVSPropertyOp16
 70
     1
102
RTVSPropertyOp17
 70
     1
102
RTVSPropertyOp18
 70
     1
102
RTVSPropertyOp19
 70
     1
102
RTVSPropertyOp20
 70
     1
102
RTVSPropertyOp21
 70
     1
102
RTVSPropertyOp22
 70
     1
102
RTVSPropertyOp23
 70
     1
102
RTVSPropertyOp24
 70
     1
102
RTVSPropertyOp25
 70
     1
102
RTVSPropertyOp26
 70
     1
102
RTVSPropertyOp27
 70
     1
102
RTVSPropertyOp28
 70
     1
102
RTVSPropertyOp29
 70
     1
102
RTVSPropertyOp30
 70
     1
102
RTVSPropertyOp31
 70
     1
102
RTVSPropertyOp32
 70
     1
  0
XRECORD
  5
2DD
102
{ACAD_REACTORS
330
2DC
102
}
330
2DC
100
AcDbXrecord
280
     1
102
RTVSPropertyOp0
 70
     1
102
RTVSPropertyOp1
 70
     1
102
RTVSPropertyOp2
 70
     1
102
RTVSPropertyOp3
 70
     1
102
RTVSPropertyOp4
 70
     1
102
RTVSPropertyOp5
 70
     1
102
RTVSPropertyOp6
 70
     1
102
RTVSPropertyOp7
 70
     1
102
RTVSPropertyOp8
 70
     1
102
RTVSPropertyOp9
 70
     1
102
RTVSPropertyOp10
 70
     1
102
RTVSPropertyOp11
 70
     1
102
RTVSPropertyOp12
 70
     1
102
RTVSPropertyOp13
 70
     1
102
RTVSPropertyOp14
 70
     1
102
RTVSPropertyOp15
 70
     1
102
RTVSPropertyOp16
 70
     1
102
RTVSPropertyOp17
 70
     1
102
RTVSPropertyOp18
 70
     1
102
RTVSPropertyOp19
 70
     1
102
RTVSPropertyOp20
 70
     1
102
RTVSPropertyOp21
 70
     1
102
RTVSPropertyOp22
 70
     1
102
RTVSPropertyOp23
 70
     1
102
RTVSPropertyOp24
 70
     1
102
RTVSPropertyOp25
 70
     1
102
RTVSPropertyOp26
 70
     1
102
RTVSPropertyOp27
 70
     1
102
RTVSPropertyOp28
 70
     1
102
RTVSPropertyOp29
 70
     1
102
RTVSPropertyOp30
 70
     1
102
RTVSPropertyOp31
 70
     1
102
RTVSPropertyOp32
 70
     1
  0
XRECORD
  5
2E5
102
{ACAD_REACTORS
330
2E4
102
}
330
2E4
100
AcDbXrecord
280
     1
102
RTVSPropertyOp0
 70
     1
102
RTVSPropertyOp1
 70
     1
102
RTVSPropertyOp2
 70
     1
102
RTVSPropertyOp3
 70
     1
102
RTVSPropertyOp4
 70
     1
102
RTVSPropertyOp5
 70
     1
102
RTVSPropertyOp6
 70
     1
102
RTVSPropertyOp7
 70
     1
102
RTVSPropertyOp8
 70
     1
102
RTVSPropertyOp9
 70
     1
102
RTVSPropertyOp10
 70
     1
102
RTVSPropertyOp11
 70
     1
102
RTVSPropertyOp12
 70
     1
102
RTVSPropertyOp13
 70
     1
102
RTVSPropertyOp14
 70
     1
102
RTVSPropertyOp15
 70
     1
102
RTVSPropertyOp16
 70
     1
102
RTVSPropertyOp17
 70
     1
102
RTVSPropertyOp18
 70
     1
102
RTVSPropertyOp19
 70
     1
102
RTVSPropertyOp20
 70
     1
102
RTVSPropertyOp21
 70
     1
102
RTVSPropertyOp22
 70
     1
102
RTVSPropertyOp23
 70
     1
102
RTVSPropertyOp24
 70
     1
102
RTVSPropertyOp25
 70
     1
102
RTVSPropertyOp26
 70
     1
102
RTVSPropertyOp27
 70
     1
102
RTVSPropertyOp28
 70
     1
102
RTVSPropertyOp29
 70
     1
102
RTVSPropertyOp30
 70
     1
102
RTVSPropertyOp31
 70
     1
102
RTVSPropertyOp32
 70
     1
  0
XRECORD
  5
2D9
102
{ACAD_REACTORS
330
2D8
102
}
330
2D8
100
AcDbXrecord
280
     1
102
RTVSPropertyOp0
 70
     1
102
RTVSPropertyOp1
 70
     1
102
RTVSPropertyOp2
 70
     1
102
RTVSPropertyOp3
 70
     1
102
RTVSPropertyOp4
 70
     1
102
RTVSPropertyOp5
 70
     1
102
RTVSPropertyOp6
 70
     1
102
RTVSPropertyOp7
 70
     1
102
RTVSPropertyOp8
 70
     1
102
RTVSPropertyOp9
 70
     1
102
RTVSPropertyOp10
 70
     1
102
RTVSPropertyOp11
 70
     1
102
RTVSPropertyOp12
 70
     1
102
RTVSPropertyOp13
 70
     1
102
RTVSPropertyOp14
 70
     1
102
RTVSPropertyOp15
 70
     1
102
RTVSPropertyOp16
 70
     1
102
RTVSPropertyOp17
 70
     1
102
RTVSPropertyOp18
 70
     1
102
RTVSPropertyOp19
 70
     1
102
RTVSPropertyOp20
 70
     1
102
RTVSPropertyOp21
 70
     1
102
RTVSPropertyOp22
 70
     1
102
RTVSPropertyOp23
 70
     1
102
RTVSPropertyOp24
 70
     1
102
RTVSPropertyOp25
 70
     1
102
RTVSPropertyOp26
 70
     1
102
RTVSPropertyOp27
 70
     1
102
RTVSPropertyOp28
 70
     1
102
RTVSPropertyOp29
 70
     1
102
RTVSPropertyOp30
 70
     1
102
RTVSPropertyOp31
 70
     1
102
RTVSPropertyOp32
 70
     1
  0
XRECORD
  5
2DB
102
{ACAD_REACTORS
330
2DA
102
}
330
2DA
100
AcDbXrecord
280
     1
102
RTVSPropertyOp0
 70
     1
102
RTVSPropertyOp1
 70
     1
102
RTVSPropertyOp2
 70
     1
102
RTVSPropertyOp3
 70
     1
102
RTVSPropertyOp4
 70
     1
102
RTVSPropertyOp5
 70
     1
102
RTVSPropertyOp6
 70
     1
102
RTVSPropertyOp7
 70
     1
102
RTVSPropertyOp8
 70
     1
102
RTVSPropertyOp9
 70
     1
102
RTVSPropertyOp10
 70
     1
102
RTVSPropertyOp11
 70
     1
102
RTVSPropertyOp12
 70
     1
102
RTVSPropertyOp13
 70
     1
102
RTVSPropertyOp14
 70
     1
102
RTVSPropertyOp15
 70
     1
102
RTVSPropertyOp16
 70
     1
102
RTVSPropertyOp17
 70
     1
102
RTVSPropertyOp18
 70
     1
102
RTVSPropertyOp19
 70
     1
102
RTVSPropertyOp20
 70
     1
102
RTVSPropertyOp21
 70
     1
102
RTVSPropertyOp22
 70
     1
102
RTVSPropertyOp23
 70
     1
102
RTVSPropertyOp24
 70
     1
102
RTVSPropertyOp25
 70
     1
102
RTVSPropertyOp26
 70
     1
102
RTVSPropertyOp27
 70
     1
102
RTVSPropertyOp28
 70
     1
102
RTVSPropertyOp29
 70
     1
102
RTVSPropertyOp30
 70
     1
102
RTVSPropertyOp31
 70
     1
102
RTVSPropertyOp32
 70
     1
  0
XRECORD
  5
2E3
102
{ACAD_REACTORS
330
2E2
102
}
330
2E2
100
AcDbXrecord
280
     1
102
RTVSPropertyOp0
 70
     1
102
RTVSPropertyOp1
 70
     1
102
RTVSPropertyOp2
 70
     1
102
RTVSPropertyOp3
 70
     1
102
RTVSPropertyOp4
 70
     1
102
RTVSPropertyOp5
 70
     1
102
RTVSPropertyOp6
 70
     1
102
RTVSPropertyOp7
 70
     1
102
RTVSPropertyOp8
 70
     1
102
RTVSPropertyOp9
 70
     1
102
RTVSPropertyOp10
 70
     1
102
RTVSPropertyOp11
 70
     1
102
RTVSPropertyOp12
 70
     1
102
RTVSPropertyOp13
 70
     1
102
RTVSPropertyOp14
 70
     1
102
RTVSPropertyOp15
 70
     1
102
RTVSPropertyOp16
 70
     1
102
RTVSPropertyOp17
 70
     1
102
RTVSPropertyOp18
 70
     1
102
RTVSPropertyOp19
 70
     1
102
RTVSPropertyOp20
 70
     1
102
RTVSPropertyOp21
 70
     1
102
RTVSPropertyOp22
 70
     1
102
RTVSPropertyOp23
 70
     1
102
RTVSPropertyOp24
 70
     1
102
RTVSPropertyOp25
 70
     1
102
RTVSPropertyOp26
 70
     1
102
RTVSPropertyOp27
 70
     1
102
RTVSPropertyOp28
 70
     1
102
RTVSPropertyOp29
 70
     1
102
RTVSPropertyOp30
 70
     1
102
RTVSPropertyOp31
 70
     1
102
RTVSPropertyOp32
 70
     1
  0
XRECORD
  5
2C7
102
{ACAD_REACTORS
330
2C6
102
}
330
2C6
100
AcDbXrecord
280
     1
102
RTVSPropertyOp0
 70
     1
102
RTVSPropertyOp1
 70
     1
102
RTVSPropertyOp2
 70
     1
102
RTVSPropertyOp3
 70
     1
102
RTVSPropertyOp4
 70
     1
102
RTVSPropertyOp5
 70
     1
102
RTVSPropertyOp6
 70
     1
102
RTVSPropertyOp7
 70
     1
102
RTVSPropertyOp8
 70
     1
102
RTVSPropertyOp9
 70
     1
102
RTVSPropertyOp10
 70
     1
102
RTVSPropertyOp11
 70
     1
102
RTVSPropertyOp12
 70
     1
102
RTVSPropertyOp13
 70
     1
102
RTVSPropertyOp14
 70
     1
102
RTVSPropertyOp15
 70
     1
102
RTVSPropertyOp16
 70
     1
102
RTVSPropertyOp17
 70
     1
102
RTVSPropertyOp18
 70
     1
102
RTVSPropertyOp19
 70
     1
102
RTVSPropertyOp20
 70
     1
102
RTVSPropertyOp21
 70
     1
102
RTVSPropertyOp22
 70
     1
102
RTVSPropertyOp23
 70
     1
102
RTVSPropertyOp24
 70
     1
102
RTVSPropertyOp25
 70
     1
102
RTVSPropertyOp26
 70
     1
102
RTVSPropertyOp27
 70
     1
102
RTVSPropertyOp28
 70
     1
102
RTVSPropertyOp29
 70
     1
102
RTVSPropertyOp30
 70
     1
102
RTVSPropertyOp31
 70
     1
102
RTVSPropertyOp32
 70
     1
  0
XRECORD
  5
2C9
102
{ACAD_REACTORS
330
2C8
102
}
330
2C8
100
AcDbXrecord
280
     1
102
RTVSPropertyOp0
 70
     1
102
RTVSPropertyOp1
 70
     1
102
RTVSPropertyOp2
 70
     1
102
RTVSPropertyOp3
 70
     1
102
RTVSPropertyOp4
 70
     1
102
RTVSPropertyOp5
 70
     1
102
RTVSPropertyOp6
 70
     1
102
RTVSPropertyOp7
 70
     1
102
RTVSPropertyOp8
 70
     1
102
RTVSPropertyOp9
 70
     1
102
RTVSPropertyOp10
 70
     1
102
RTVSPropertyOp11
 70
     1
102
RTVSPropertyOp12
 70
     1
102
RTVSPropertyOp13
 70
     1
102
RTVSPropertyOp14
 70
     1
102
RTVSPropertyOp15
 70
     1
102
RTVSPropertyOp16
 70
     1
102
RTVSPropertyOp17
 70
     1
102
RTVSPropertyOp18
 70
     1
102
RTVSPropertyOp19
 70
     1
102
RTVSPropertyOp20
 70
     1
102
RTVSPropertyOp21
 70
     1
102
RTVSPropertyOp22
 70
     1
102
RTVSPropertyOp23
 70
     1
102
RTVSPropertyOp24
 70
     1
102
RTVSPropertyOp25
 70
     1
102
RTVSPropertyOp26
 70
     1
102
RTVSPropertyOp27
 70
     1
102
RTVSPropertyOp28
 70
     1
102
RTVSPropertyOp29
 70
     1
102
RTVSPropertyOp30
 70
     1
102
RTVSPropertyOp31
 70
     1
102
RTVSPropertyOp32
 70
     1
  0
XRECORD
  5
2CB
102
{ACAD_REACTORS
330
2CA
102
}
330
2CA
100
AcDbXrecord
280
     1
102
RTVSPropertyOp0
 70
     1
102
RTVSPropertyOp1
 70
     1
102
RTVSPropertyOp2
 70
     1
102
RTVSPropertyOp3
 70
     1
102
RTVSPropertyOp4
 70
     1
102
RTVSPropertyOp5
 70
     1
102
RTVSPropertyOp6
 70
     1
102
RTVSPropertyOp7
 70
     1
102
RTVSPropertyOp8
 70
     1
102
RTVSPropertyOp9
 70
     1
102
RTVSPropertyOp10
 70
     1
102
RTVSPropertyOp11
 70
     1
102
RTVSPropertyOp12
 70
     1
102
RTVSPropertyOp13
 70
     1
102
RTVSPropertyOp14
 70
     1
102
RTVSPropertyOp15
 70
     1
102
RTVSPropertyOp16
 70
     1
102
RTVSPropertyOp17
 70
     1
102
RTVSPropertyOp18
 70
     1
102
RTVSPropertyOp19
 70
     1
102
RTVSPropertyOp20
 70
     1
102
RTVSPropertyOp21
 70
     1
102
RTVSPropertyOp22
 70
     1
102
RTVSPropertyOp23
 70
     1
102
RTVSPropertyOp24
 70
     1
102
RTVSPropertyOp25
 70
     1
102
RTVSPropertyOp26
 70
     1
102
RTVSPropertyOp27
 70
     1
102
RTVSPropertyOp28
 70
     1
102
RTVSPropertyOp29
 70
     1
102
RTVSPropertyOp30
 70
     1
102
RTVSPropertyOp31
 70
     1
102
RTVSPropertyOp32
 70
     1
  0
XRECORD
  5
2CD
102
{ACAD_REACTORS
330
2CC
102
}
330
2CC
100
AcDbXrecord
280
     1
102
RTVSPropertyOp0
 70
     1
102
RTVSPropertyOp1
 70
     1
102
RTVSPropertyOp2
 70
     1
102
RTVSPropertyOp3
 70
     1
102
RTVSPropertyOp4
 70
     1
102
RTVSPropertyOp5
 70
     1
102
RTVSPropertyOp6
 70
     1
102
RTVSPropertyOp7
 70
     1
102
RTVSPropertyOp8
 70
     1
102
RTVSPropertyOp9
 70
     1
102
RTVSPropertyOp10
 70
     1
102
RTVSPropertyOp11
 70
     1
102
RTVSPropertyOp12
 70
     1
102
RTVSPropertyOp13
 70
     1
102
RTVSPropertyOp14
 70
     1
102
RTVSPropertyOp15
 70
     1
102
RTVSPropertyOp16
 70
     1
102
RTVSPropertyOp17
 70
     1
102
RTVSPropertyOp18
 70
     1
102
RTVSPropertyOp19
 70
     1
102
RTVSPropertyOp20
 70
     1
102
RTVSPropertyOp21
 70
     1
102
RTVSPropertyOp22
 70
     1
102
RTVSPropertyOp23
 70
     1
102
RTVSPropertyOp24
 70
     1
102
RTVSPropertyOp25
 70
     1
102
RTVSPropertyOp26
 70
     1
102
RTVSPropertyOp27
 70
     1
102
RTVSPropertyOp28
 70
     1
102
RTVSPropertyOp29
 70
     1
102
RTVSPropertyOp30
 70
     1
102
RTVSPropertyOp31
 70
     1
102
RTVSPropertyOp32
 70
     1
  0
XRECORD
  5
2E1
102
{ACAD_REACTORS
330
2E0
102
}
330
2E0
100
AcDbXrecord
280
     1
102
RTVSPropertyOp0
 70
     1
102
RTVSPropertyOp1
 70
     1
102
RTVSPropertyOp2
 70
     1
102
RTVSPropertyOp3
 70
     1
102
RTVSPropertyOp4
 70
     1
102
RTVSPropertyOp5
 70
     1
102
RTVSPropertyOp6
 70
     1
102
RTVSPropertyOp7
 70
     1
102
RTVSPropertyOp8
 70
     1
102
RTVSPropertyOp9
 70
     1
102
RTVSPropertyOp10
 70
     1
102
RTVSPropertyOp11
 70
     1
102
RTVSPropertyOp12
 70
     1
102
RTVSPropertyOp13
 70
     1
102
RTVSPropertyOp14
 70
     1
102
RTVSPropertyOp15
 70
     1
102
RTVSPropertyOp16
 70
     1
102
RTVSPropertyOp17
 70
     1
102
RTVSPropertyOp18
 70
     1
102
RTVSPropertyOp19
 70
     1
102
RTVSPropertyOp20
 70
     1
102
RTVSPropertyOp21
 70
     1
102
RTVSPropertyOp22
 70
     1
102
RTVSPropertyOp23
 70
     1
102
RTVSPropertyOp24
 70
     1
102
RTVSPropertyOp25
 70
     1
102
RTVSPropertyOp26
 70
     1
102
RTVSPropertyOp27
 70
     1
102
RTVSPropertyOp28
 70
     1
102
RTVSPropertyOp29
 70
     1
102
RTVSPropertyOp30
 70
     1
102
RTVSPropertyOp31
 70
     1
102
RTVSPropertyOp32
 70
     1
  0
XRECORD
  5
2D7
102
{ACAD_REACTORS
330
2D6
102
}
330
2D6
100
AcDbXrecord
280
     1
102
RTVSPropertyOp0
 70
     1
102
RTVSPropertyOp1
 70
     1
102
RTVSPropertyOp2
 70
     1
102
RTVSPropertyOp3
 70
     1
102
RTVSPropertyOp4
 70
     1
102
RTVSPropertyOp5
 70
     1
102
RTVSPropertyOp6
 70
     1
102
RTVSPropertyOp7
 70
     1
102
RTVSPropertyOp8
 70
     1
102
RTVSPropertyOp9
 70
     1
102
RTVSPropertyOp10
 70
     1
102
RTVSPropertyOp11
 70
     1
102
RTVSPropertyOp12
 70
     1
102
RTVSPropertyOp13
 70
     1
102
RTVSPropertyOp14
 70
     1
102
RTVSPropertyOp15
 70
     1
102
RTVSPropertyOp16
 70
     1
102
RTVSPropertyOp17
 70
     1
102
RTVSPropertyOp18
 70
     1
102
RTVSPropertyOp19
 70
     1
102
RTVSPropertyOp20
 70
     1
102
RTVSPropertyOp21
 70
     1
102
RTVSPropertyOp22
 70
     1
102
RTVSPropertyOp23
 70
     1
102
RTVSPropertyOp24
 70
     1
102
RTVSPropertyOp25
 70
     1
102
RTVSPropertyOp26
 70
     1
102
RTVSPropertyOp27
 70
     1
102
RTVSPropertyOp28
 70
     1
102
RTVSPropertyOp29
 70
     1
102
RTVSPropertyOp30
 70
     1
102
RTVSPropertyOp31
 70
     1
102
RTVSPropertyOp32
 70
     1
  0
XRECORD
  5
2DF
102
{ACAD_REACTORS
330
2DE
102
}
330
2DE
100
AcDbXrecord
280
     1
102
RTVSPropertyOp0
 70
     1
102
RTVSPropertyOp1
 70
     1
102
RTVSPropertyOp2
 70
     1
102
RTVSPropertyOp3
 70
     1
102
RTVSPropertyOp4
 70
     1
102
RTVSPropertyOp5
 70
     1
102
RTVSPropertyOp6
 70
     1
102
RTVSPropertyOp7
 70
     1
102
RTVSPropertyOp8
 70
     1
102
RTVSPropertyOp9
 70
     1
102
RTVSPropertyOp10
 70
     1
102
RTVSPropertyOp11
 70
     1
102
RTVSPropertyOp12
 70
     1
102
RTVSPropertyOp13
 70
     1
102
RTVSPropertyOp14
 70
     1
102
RTVSPropertyOp15
 70
     1
102
RTVSPropertyOp16
 70
     1
102
RTVSPropertyOp17
 70
     1
102
RTVSPropertyOp18
 70
     1
102
RTVSPropertyOp19
 70
     1
102
RTVSPropertyOp20
 70
     1
102
RTVSPropertyOp21
 70
     1
102
RTVSPropertyOp22
 70
     1
102
RTVSPropertyOp23
 70
     1
102
RTVSPropertyOp24
 70
     1
102
RTVSPropertyOp25
 70
     1
102
RTVSPropertyOp26
 70
     1
102
RTVSPropertyOp27
 70
     1
102
RTVSPropertyOp28
 70
     1
102
RTVSPropertyOp29
 70
     1
102
RTVSPropertyOp30
 70
     1
102
RTVSPropertyOp31
 70
     1
102
RTVSPropertyOp32
 70
     1
  0
ENDSEC
  0
EOF
